
<?xml version="1.0" standalone="no"?>
<!DOCTYPE svg PUBLIC "-//W3C//DTD SVG 1.1//EN" "http://www.w3.org/Graphics/SVG/1.1/DTD/svg11.dtd" >
<svg xmlns="http://www.w3.org/2000/svg">
<metadata>Generated by IcoMoon</metadata>
<defs>
<font id="icomoon" horiz-adv-x="1024">
<font-face units-per-em="1024" ascent="960" descent="-64" />
<missing-glyph horiz-adv-x="1024" />
<glyph unicode="&#x20;" horiz-adv-x="512" d="" />
<glyph unicode="&#xe900;" glyph-name="alert" d="M191.798 788.671c-188.279-188.289-188.279-493.536 0-681.506 188.279-187.964 493.511-188.29 681.47 0 187.952 188.29 188.277 493.538 0 681.506-188.283 187.968-493.191 187.968-681.47 0zM551.969 727.622c40.805 0 73.255-33.417 73.255-74.223s-33.414-74.224-73.255-74.224c-40.805 0-74.219 33.417-74.219 75.188 0 40.485 33.736 73.259 74.219 73.259zM656.709 229.906c-1.928-6.102-6.102-13.173-10.282-17.348-26.341-27.311-59.116-43.701-97.671-43.701-18.314 0-35.664 0-53.977 2.891-29.559 4.18-67.151 40.809-62.010 79.366 4.177 26.347 8.032 53.019 12.209 79.366 8.032 45.625 16.386 92.536 24.418 138.484 0 2.892 0.964 6.105 0.964 8.997 0 19.279-6.104 26.348-25.382 28.597-8.032 0.964-16.386 1.928-24.418 4.177-8.997 2.892-14.137 11.246-13.173 18.315 0.964 8.033 6.105 13.174 16.386 15.102 5.141 0.964 11.245 0.964 17.35 0.964 22.491 0 44.66 0 68.115 0 24.418 0 47.873 0 72.291 0 17.35 0 27.312-8.033 27.312-25.384 0-14.138-1.928-28.597-5.144-42.735-8.995-53.017-19.276-104.748-28.594-157.763-2.892-17.354-7.069-34.702-8.996-51.73-0.964-8.035 0-17.354 1.928-25.389 2.892-11.246 11.245-17.348 22.491-16.384 8.996 0.964 18.316 4.174 27.309 8.035 7.072 2.891 13.173 8.029 20.245 10.276 12.529 4.18 21.847-2.891 18.631-14.137z" />
<glyph unicode="&#xe901;" glyph-name="android" d="M87.859 230.436c-33.778 0-68.511-25.297-68.511-69.579 0-40.479 30.538-69.071 68.511-69.071 31.345 0 45.315 19.661 45.315 19.661v-8.57c0-4.051 4.098-8.57 9.171-8.57h22.658v133.102h-31.828v-16.887c0 0-14.087 19.915-45.315 19.915zM93.529 203.219c27.807 0 42.393-22.857 42.393-42.354 0-21.713-17.319-42.331-42.334-42.331-20.911 0-41.859 15.827-41.859 42.621 0 24.184 18.026 42.064 41.8 42.064zM209.214 94.333c-4.89 0-9.171 3.277-9.171 8.57v124.532h31.828v-16.473c7.212 10.133 21.303 19.536 42.93 19.536 35.349 0 54.172-26.335 54.172-50.96v-85.206h-22.118c-5.799 0-9.71 4.537-9.71 9.074v69.579c0 13.65-8.949 30.226-29.645 30.226-22.332 0-35.629-19.723-35.629-38.293v-70.585h-22.657zM421.816 230.476c-33.778 0-68.511-25.297-68.511-69.579 0-40.479 30.538-69.071 68.511-69.071 31.344 0 45.315 19.661 45.315 19.661v-8.57c0-4.051 4.096-8.57 9.171-8.57h22.657v199.653h-31.829v-83.443c0 0-14.087 19.919-45.315 19.919zM427.486 203.255c27.807 0 42.392-22.853 42.392-42.349 0-21.713-17.319-42.336-42.333-42.336-20.911 0-41.859 15.832-41.859 42.625 0 24.184 18.026 42.060 41.8 42.060zM543.214 94.342c-4.888 0-9.171 3.277-9.171 8.57v124.532h31.829v-22.185c5.481 12.43 17.301 23.699 38.302 23.699 5.855 0 11.331-1.011 11.331-1.011v-30.751c0 0-6.839 2.52-15.106 2.52-22.332 0-34.527-19.728-34.527-38.298v-67.076h-22.657zM808.533 94.399c-4.884 0-9.163 3.277-9.163 8.57v124.532h31.797v-133.102h-22.635zM924.534 230.476c-33.779 0-68.51-25.297-68.51-69.579 0-40.479 30.537-69.071 68.51-69.071 31.343 0 45.314 19.661 45.314 19.661v-8.57c0-4.051 4.096-8.57 9.171-8.57h22.657v199.653h-31.829v-83.443c0 0-14.087 19.919-45.314 19.919zM930.202 203.255c27.808 0 42.394-22.853 42.394-42.349 0-21.713-17.319-42.336-42.331-42.336-20.912 0-41.859 15.832-41.859 42.625 0 24.184 18.027 42.060 41.797 42.060zM814.988 256.151c11.616 0 21.032 8.811 21.032 19.674 0 10.868-9.416 19.674-21.032 19.674s-21.032-8.806-21.032-19.674c0-10.863 9.416-19.674 21.032-19.674zM699.347 230.52c-35.373 0-74.24-24.678-74.24-69.383 0-40.737 33.106-69.311 74.164-69.311 50.599 0 75.309 38.017 75.309 69.053 0 38.088-31.815 69.641-75.233 69.641zM699.463 202.743c24.465 0 42.71-18.428 42.71-41.69 0-23.663-19.371-41.926-42.634-41.926-21.602 0-42.594 16.429-42.594 41.53 0 25.52 19.968 42.086 42.518 42.086zM750.169 738.201l81.435 131.841c4.595 7.391 1.816 16.78-5.984 21.074-7.805 4.295-17.956 1.798-22.443-5.593l-82.503-133.539c-62.945 26.868-133.801 41.85-210 41.85-76.195 0-147.050-14.982-209.996-41.85l-82.503 133.539c-4.595 7.391-14.641 9.888-22.549 5.593s-10.58-13.683-5.985-21.074l81.434-131.841c-140.426-71.114-235.539-203.954-251.249-359.468h981.699c-15.712 155.514-110.824 288.354-251.356 359.468zM285.289 507.579c-22.763 0-41.144 17.279-41.144 38.453 0 21.274 18.488 38.453 41.144 38.453 22.763 0 41.145-17.279 41.145-38.453 0.107-21.175-18.382-38.453-41.145-38.453zM735.953 507.579c-22.76 0-41.143 17.279-41.143 38.453 0 21.274 18.49 38.453 41.143 38.453 22.764 0 41.147-17.279 41.147-38.453 0.107-21.175-18.383-38.453-41.147-38.453z" />
<glyph unicode="&#xe902;" glyph-name="apple" d="M891.551 204.892c-14.392-30.408-31.432-58.399-51.174-84.132-26.911-35.087-48.947-59.372-65.925-72.858-26.327-22.134-54.528-33.469-84.731-34.115-21.683 0-47.831 5.642-78.264 17.085-30.536 11.392-58.598 17.029-84.26 17.029-26.911 0-55.773-5.637-86.644-17.029-30.919-11.443-55.826-17.408-74.869-17.997-28.962-1.132-57.829 10.527-86.644 35.026-18.391 14.669-41.395 39.813-68.952 75.433-29.567 38.042-53.875 82.15-72.919 132.439-20.394 54.318-30.619 106.916-30.619 157.837 0 58.331 13.785 108.641 41.395 150.8 21.699 33.864 50.567 60.577 86.697 80.187s75.169 29.603 117.21 30.243c23.004 0 53.17-6.506 90.657-19.293 37.382-12.83 61.384-19.336 71.908-19.336 7.869 0 34.534 7.608 79.734 22.775 42.747 14.066 78.822 19.89 108.38 17.595 80.087-5.91 140.252-34.777 180.265-86.785-71.624-39.683-107.054-95.263-106.348-166.563 0.645-55.537 22.682-101.755 65.981-138.45 19.625-17.029 41.544-30.193 65.93-39.542-5.289-14.024-10.87-27.453-16.809-40.351zM707.876 865.787c0-43.53-17.393-84.173-52.060-121.793-41.836-44.722-92.436-70.565-147.31-66.487-0.699 5.222-1.105 10.718-1.105 16.494 0 41.788 19.898 86.511 55.226 123.077 17.638 18.514 40.074 33.909 67.277 46.189 27.146 12.097 52.823 18.787 76.974 19.933 0.707-5.819 0.998-11.639 0.998-17.412v-0.001z" />
<glyph unicode="&#xe903;" glyph-name="bell" d="M703.568-24.616c0-10.445-4.039-20.463-11.224-27.847-7.191-7.39-16.936-11.537-27.102-11.537h-306.584c-10.164 0-19.912 4.147-27.098 11.537-7.187 7.384-11.225 17.402-11.225 27.847s4.037 20.463 11.225 27.847c7.187 7.39 16.935 11.537 27.098 11.537h306.584c10.166 0 19.911-4.147 27.102-11.537 7.185-7.384 11.224-17.402 11.224-27.847zM956.757 132.938c-6.639-12.032-16.282-22.022-27.938-28.951-11.651-6.923-24.889-10.53-38.343-10.45h-757.049c-13.475 0.023-26.708 3.692-38.363 10.638-11.655 6.952-21.321 16.942-28.024 28.951-6.702 12.015-10.204 25.634-10.151 39.481 0.052 13.852 3.657 27.443 10.45 39.401 28.441 50.29 62.352 145.721 62.352 314.762v39.384c-0.128 104.32 40.072 204.421 111.757 278.281s168.984 115.43 270.493 115.566l2.922-0.010c209.196-1.595 379.385-180.264 379.385-398.287v-34.934c0-169.046 33.894-264.489 62.322-314.784 6.872-11.964 10.507-25.6 10.542-39.498 0.034-13.892-3.538-27.546-10.354-39.549v0zM890.476 172.305c-33.343 58.783-72.875 167.879-72.875 354.464v34.934c0 174.907-136.067 318.243-303.308 319.518-0.778 0.006-1.555 0.009-2.333 0.010-81.184-0.131-158.991-33.401-216.307-92.489s-89.443-139.155-89.316-222.587v-39.384c0-186.585-39.554-295.681-72.737-354.351l756.876-0.114z" />
<glyph unicode="&#xe904;" glyph-name="board" d="M298.667 533.333h85.333c11.316 0 22.168 4.495 30.17 12.497s12.497 18.854 12.497 30.17c0 11.316-4.495 22.168-12.497 30.17s-18.854 12.497-30.17 12.497h-85.333c-11.316 0-22.168-4.495-30.17-12.497s-12.497-18.854-12.497-30.17c0-11.316 4.495-22.168 12.497-30.17s18.854-12.497 30.17-12.497zM896 789.333h-341.333v42.667c0 11.316-4.497 22.168-12.497 30.17s-18.854 12.497-30.17 12.497c-11.315 0-22.17-4.495-30.17-12.497s-12.497-18.854-12.497-30.17v-42.667h-341.333c-11.316 0-22.168-4.495-30.17-12.497s-12.497-18.854-12.497-30.17v-426.667c0-33.946 13.486-66.505 37.49-90.509s56.562-37.491 90.51-37.491h195.84l-98.133-97.707c-3.999-3.968-7.173-8.687-9.339-13.884-2.166-5.201-3.281-10.778-3.281-16.41s1.115-11.209 3.281-16.41c2.166-5.197 5.34-9.916 9.339-13.884 3.966-3.998 8.685-7.172 13.885-9.34s10.776-3.281 16.409-3.281c5.632 0 11.209 1.114 16.409 3.281s9.918 5.342 13.885 9.34l97.707 98.133v-67.84c0-11.315 4.497-22.17 12.497-30.17s18.854-12.497 30.17-12.497c11.315 0 22.17 4.497 30.17 12.497s12.497 18.854 12.497 30.17v67.84l97.707-98.133c3.968-3.998 8.687-7.172 13.884-9.34 5.201-2.167 10.778-3.281 16.41-3.281s11.209 1.114 16.41 3.281c5.197 2.167 9.916 5.342 13.884 9.34 3.998 3.968 7.172 8.687 9.34 13.884 2.167 5.201 3.281 10.778 3.281 16.41s-1.114 11.209-3.281 16.41c-2.167 5.197-5.342 9.916-9.34 13.884l-98.133 97.707h195.84c33.946 0 66.505 13.487 90.509 37.491s37.491 56.563 37.491 90.509v426.667c0 11.316-4.497 22.168-12.497 30.17s-18.854 12.497-30.17 12.497zM853.333 320c0-11.315-4.497-22.17-12.497-30.17s-18.854-12.497-30.17-12.497h-597.333c-11.316 0-22.168 4.497-30.17 12.497s-12.497 18.854-12.497 30.17v384h682.667v-384zM298.667 362.667h256c11.315 0 22.17 4.497 30.17 12.497s12.497 18.854 12.497 30.17c0 11.315-4.497 22.17-12.497 30.17s-18.854 12.497-30.17 12.497h-256c-11.316 0-22.168-4.497-30.17-12.497s-12.497-18.854-12.497-30.17c0-11.315 4.495-22.17 12.497-30.17s18.854-12.497 30.17-12.497z" />
<glyph unicode="&#xe905;" glyph-name="book" d="M972.8 934.4h-358.4c-37.908-0.128-74.414-14.365-102.4-39.936-27.987 25.571-64.49 39.808-102.4 39.936h-358.4c-13.579 0-26.602-5.394-36.204-14.996s-14.996-22.625-14.996-36.204v-768c0-13.578 5.394-26.604 14.996-36.204s22.625-14.996 36.204-14.996h294.81c26.931 0 53.35-10.957 72.397-30.003l57.395-57.395c0.461-0.461 1.075-0.614 1.536-1.075 4.403-4.045 9.318-7.629 15.053-10.035h0.102c12.491-5.171 26.522-5.171 39.014 0h0.102c5.734 2.406 10.65 5.99 15.053 10.035 0.461 0.461 1.075 0.614 1.536 1.075l57.395 57.395c19.246 19.133 45.256 29.916 72.397 30.003h294.81c13.578 0 26.604 5.396 36.204 14.996s14.996 22.625 14.996 36.204v768c0 13.579-5.396 26.602-14.996 36.204s-22.625 14.996-36.204 14.996v0zM346.010 166.4h-243.61v665.6h307.2c28.262 0 51.2-22.989 51.2-51.2v-649.677c-33.922 22.876-73.876 35.154-114.79 35.277v0zM921.6 166.4h-243.61c-40.909 0-81.101-12.595-114.79-35.277v649.677c0 28.211 22.938 51.2 51.2 51.2h307.2v-665.6z" />
<glyph unicode="&#xe906;" glyph-name="calendar" d="M877.715 819.809h-97.523v24.381c0 30.476-21.338 51.81-48.762 51.81-27.43 0-51.814-21.333-51.814-51.81v-24.381h-350.473v24.381c0 30.476-24.381 51.81-51.81 51.81s-51.809-21.333-51.809-51.81v-24.381h-94.476c-73.143 0-131.048-57.905-131.048-131.048v-557.715c0-73.139 57.905-131.046 131.048-131.046h746.668c73.139 0 131.046 57.907 131.046 131.046v557.715c0 73.143-57.907 131.048-131.046 131.048zM100.572 588.191v100.571c0 15.238 12.19 30.477 30.476 30.477h667.429c3.046 0 3.046 0 6.093 0h73.146c15.238 0 30.477-12.191 30.477-30.477v-167.619h-807.62v67.048zM908.192 131.046c0-15.238-12.192-30.477-30.477-30.477h-746.668c-15.238 0-30.476 12.192-30.476 30.477v286.477h807.62v-286.477z" />
<glyph unicode="&#xe907;" glyph-name="calendar-finish" d="M844.719 751.937h-93.858v23.464c0 29.331-20.534 49.862-46.932 49.862s-49.858-20.531-49.858-49.862v-23.464h-337.303v23.464c0 29.331-23.464 49.862-49.862 49.862s-49.862-20.531-49.862-49.862v-23.464h-90.924c-70.394 0-126.121-55.728-126.121-126.121v-536.75c0-70.392 55.728-126.119 126.121-126.119h718.598c70.392 0 126.119 55.727 126.119 126.119v536.75c0 70.393-55.727 126.121-126.119 126.121zM874.049 461.565v-372.499c0-14.665-11.733-29.33-29.33-29.33h-718.598c-14.665 0-29.331 11.733-29.331 29.33v536.75c0 14.665 11.732 29.331 29.331 29.331h642.337c2.932 0 2.932 0 5.864 0h70.397c14.665 0 29.33-11.732 29.33-29.331v-164.251zM607.076 484.975c-14.67 14.665-38.131 14.665-52.795 0l-67.462-67.461-67.461 67.461c-14.665 14.665-38.129 14.665-52.795 0s-14.665-38.13 0-52.795l67.46-67.458-70.393-67.46c-14.665-14.665-14.665-38.131 0-52.795 8.799-8.801 17.598-11.733 26.398-11.733s20.531 2.932 26.397 11.733l67.46 67.46 67.458-67.46c8.801-8.801 17.602-11.733 26.398-11.733 8.801 0 20.534 2.932 26.398 11.733 14.665 14.665 14.665 38.131 0 52.795l-67.458 67.46 67.458 67.458c17.602 14.665 17.602 38.13 2.937 52.795z" />
<glyph unicode="&#xe908;" glyph-name="calendar-start" d="M844.719 859.727h-93.858v23.464c0 29.33-20.534 49.862-46.932 49.862s-49.858-20.531-49.858-49.862v-23.464h-337.303v23.464c0 29.33-23.464 49.862-49.862 49.862s-49.862-20.531-49.862-49.862v-23.464h-90.924c-70.394 0-126.121-55.728-126.121-126.121v-536.75c0-70.392 55.728-126.119 126.121-126.119h718.598c70.392 0 126.119 55.727 126.119 126.119v536.75c0 70.393-55.727 126.121-126.119 126.121zM874.049 569.355v-372.499c0-14.665-11.733-29.33-29.33-29.33h-718.598c-14.665 0-29.331 11.733-29.331 29.33v536.75c0 14.665 11.732 29.331 29.331 29.331h642.337c2.932 0 2.932 0 5.864 0h70.397c14.665 0 29.33-11.732 29.33-29.331v-164.251zM586.612 498.97l-175.985 102.657c-8.799 5.866-20.531 5.866-29.331 0s-14.665-14.665-14.665-26.398v-205.312c0-8.801 5.866-20.534 14.665-26.398 2.933-2.932 8.799-2.932 14.665-2.932s11.732 2.932 14.665 2.932l175.985 102.655c8.796 5.866 14.665 14.665 14.665 26.398s-2.932 20.531-14.665 26.397z" />
<glyph unicode="&#xe909;" glyph-name="cart" d="M963.84 819.2c-7.68 11.52-23.040 15.36-34.56 15.36h-702.72v7.68c-7.68 53.76-57.6 92.16-111.36 92.16h-72.96c-23.040 0-42.24-19.2-42.24-42.24s19.2-42.24 42.24-42.24h72.96c11.52 0 23.040-7.68 23.040-19.2l61.44-372.48v-7.68l11.52-65.28c11.52-65.28 65.28-111.36 130.56-111.36h480c23.040 0 42.24 19.2 42.24 42.24s-19.2 42.24-42.24 42.24h-480c-23.040 0-38.4 15.36-42.24 38.4l-3.84 19.2h545.28c19.2 0 38.4 15.36 42.24 34.56l88.32 330.24c3.84 11.52 0 26.88-7.68 38.4zM871.68 746.24l-65.28-245.76h-522.24l-38.4 245.76h625.92zM353.275 243.19c-61.44 0-115.2-49.92-115.2-115.2s49.92-115.2 115.2-115.2c61.44 0 115.2 49.92 115.2 115.2s-53.76 115.2-115.2 115.2zM380.155 127.99c0-15.36-11.52-26.88-26.88-26.88s-26.88 11.52-26.88 26.88c0 15.36 11.52 26.88 26.88 26.88s26.88-11.52 26.88-26.88zM687.386 243.19c-65.28 0-115.2-49.92-115.2-115.2s49.92-115.2 115.2-115.2c61.44 0 115.2 49.92 115.2 115.2s-53.76 115.2-115.2 115.2zM687.386 101.11c-15.36 0-26.88 11.52-26.88 26.88s11.52 26.88 26.88 26.88c15.36 0 26.88-11.52 26.88-26.88s-11.52-26.88-26.88-26.88z" />
<glyph unicode="&#xe90a;" glyph-name="check" d="M786.858 625.904c-3.805 3.839-8.335 6.886-13.328 8.966-4.989 2.080-10.342 3.15-15.753 3.15-5.407 0-10.76-1.071-15.749-3.15-4.993-2.080-9.523-5.127-13.332-8.966l-305.15-305.56-128.205 128.614c-3.953 3.817-8.62 6.82-13.735 8.835s-10.575 3.006-16.071 2.908c-5.496-0.094-10.92-1.27-15.961-3.461s-9.601-5.353-13.421-9.306c-3.819-3.957-6.822-8.622-8.838-13.738-2.015-5.112-3.004-10.572-2.909-16.069s1.272-10.92 3.463-15.962c2.191-5.042 5.354-9.601 9.307-13.418l157.286-157.286c3.808-3.842 8.338-6.889 13.329-8.966 4.991-2.081 10.345-3.15 15.752-3.15s10.763 1.069 15.752 3.15c4.993 2.077 9.523 5.124 13.328 8.966l334.234 334.232c4.157 3.835 7.479 8.491 9.748 13.672s3.441 10.777 3.441 16.433c0 5.657-1.171 11.252-3.441 16.434s-5.591 9.837-9.748 13.672z" />
<glyph unicode="&#xe90b;" glyph-name="check-stroke" d="M610.37 585.002l-175.718-176.127-67.582 67.584c-3.672 4.284-8.19 7.77-13.272 10.228s-10.616 3.838-16.257 4.059c-5.641 0.217-11.266-0.733-16.522-2.793s-10.030-5.181-14.022-9.175c-3.992-3.99-7.115-8.765-9.174-14.021s-3.010-10.883-2.792-16.523c0.218-5.64 1.599-11.174 4.058-16.257s5.941-9.601 10.229-13.271l96.256-96.666c3.827-3.797 8.366-6.799 13.355-8.839 4.993-2.040 10.334-3.072 15.725-3.039 10.748 0.045 21.045 4.309 28.672 11.878l204.8 204.8c3.842 3.805 6.889 8.335 8.966 13.328 2.081 4.989 3.15 10.344 3.15 15.752s-1.069 10.761-3.15 15.752c-2.077 4.991-5.124 9.522-8.966 13.33-7.672 7.629-18.055 11.911-28.877 11.911-10.818 0-21.201-4.282-28.877-11.911zM498.958 863.12c-81.011 0-160.202-24.023-227.56-69.030s-119.858-108.978-150.859-183.823c-31.002-74.846-39.113-157.2-23.309-236.655s54.815-152.441 112.099-209.723c57.283-57.283 130.267-96.293 209.72-112.099 79.458-15.802 161.812-7.692 236.659 23.31 74.842 30.999 138.813 83.501 183.82 150.86 45.011 67.359 69.030 146.551 69.030 227.561 0 53.789-10.592 107.051-31.179 156.746-20.582 49.695-50.754 94.849-88.789 132.884s-83.19 68.206-132.882 88.79c-49.697 20.584-102.957 31.179-156.75 31.179zM498.958 125.841c-64.807 0-128.161 19.218-182.048 55.222-53.887 36.008-95.886 87.183-120.687 147.059s-31.291 125.759-18.647 189.325c12.644 63.563 43.852 121.95 89.679 167.777s104.214 77.036 167.777 89.679c63.566 12.644 129.45 6.154 189.325-18.647s111.051-66.801 147.059-120.687c36.008-53.887 55.222-117.241 55.222-182.048 0-86.909-34.521-170.254-95.973-231.707s-144.798-95.973-231.707-95.973z" />
<glyph unicode="&#xe90c;" glyph-name="chevron-down" d="M63.58 663.693c10.911 10.907 25.707 17.035 41.135 17.035 15.427 0 30.224-6.127 41.134-17.035l366.139-366.139 366.138 366.139c5.368 5.557 11.787 9.99 18.885 13.038s14.733 4.654 22.459 4.721c7.725 0.067 15.386-1.405 22.535-4.33s13.647-7.245 19.112-12.709c5.464-5.463 9.784-11.958 12.707-19.109s4.394-14.812 4.329-22.537c-0.065-7.726-1.666-15.36-4.72-22.458s-7.485-13.519-13.042-18.885l-407.269-407.273c-10.91-10.907-25.707-17.035-41.134-17.035s-30.224 6.127-41.135 17.035l-407.273 407.273c-10.907 10.91-17.035 25.706-17.035 41.134s6.127 30.224 17.035 41.135v0z" />
<glyph unicode="&#xe90d;" glyph-name="comments" d="M810.667 618.667h-42.667v128c0 33.948-13.487 66.505-37.491 90.51s-56.563 37.49-90.509 37.49h-426.667c-33.948 0-66.505-13.486-90.51-37.49s-37.49-56.562-37.49-90.51v-512c0.042-8.422 2.577-16.644 7.284-23.633 4.707-6.985 11.377-12.42 19.169-15.62 5.064-2.389 10.616-3.558 16.213-3.413 5.615-0.034 11.182 1.045 16.38 3.166 5.198 2.125 9.926 5.252 13.913 9.207l119.893 120.32h63.147v-61.44c0-33.946 13.486-66.505 37.49-90.509s56.564-37.491 90.51-37.491h295.253l101.12-101.547c3.985-3.955 8.717-7.083 13.914-9.207 5.197-2.121 10.765-3.2 16.38-3.166 5.598-0.145 11.149 1.024 16.213 3.413 7.791 3.2 14.46 8.636 19.17 15.62 4.706 6.989 7.241 15.211 7.283 23.633v426.667c0 33.946-13.487 66.505-37.491 90.51s-56.563 37.49-90.509 37.49zM341.333 490.667v-80.64h-80.64c-5.615 0.034-11.182-1.045-16.38-3.166-5.198-2.125-9.926-5.252-13.913-9.207l-59.733-60.16v409.173c0 11.316 4.495 22.168 12.497 30.17s18.854 12.497 30.17 12.497h426.667c11.315 0 22.17-4.495 30.17-12.497s12.497-18.854 12.497-30.17v-128h-213.333c-33.946 0-66.505-13.486-90.51-37.49s-37.49-56.564-37.49-90.51zM853.333 166.827l-42.667 42.667c-3.951 4.032-8.666 7.241-13.862 9.438-5.201 2.197-10.786 3.337-16.431 3.362h-311.040c-11.315 0-22.17 4.497-30.17 12.497s-12.497 18.854-12.497 30.17v225.707c0 11.315 4.497 22.17 12.497 30.17s18.854 12.497 30.17 12.497h341.333c11.315 0 22.17-4.497 30.17-12.497s12.497-18.854 12.497-30.17v-323.84z" />
<glyph unicode="&#xe90e;" glyph-name="copy" d="M964.267 604.672c-0.533 4.704-1.562 9.337-3.072 13.824v4.608c-2.462 5.264-5.747 10.103-9.728 14.336l-307.2 307.2c-4.233 3.983-9.071 7.266-14.336 9.728-1.527 0.217-3.081 0.217-4.608 0-5.201 2.983-10.944 4.898-16.896 5.632h-207.36c-40.737 0-79.806-16.183-108.611-44.989s-44.989-67.874-44.989-108.611v-51.2h-51.2c-40.737 0-79.806-16.183-108.611-44.989s-44.989-67.874-44.989-108.611v-512c0-40.738 16.183-79.808 44.989-108.612s67.874-44.988 108.611-44.988h409.6c40.738 0 79.808 16.183 108.612 44.988s44.988 67.874 44.988 108.612v51.2h51.2c40.738 0 79.808 16.183 108.612 44.988s44.988 67.874 44.988 108.612v307.2c0 0 0 0 0 3.072zM657.067 785.408l132.608-132.608h-81.408c-13.581 0-26.603 5.394-36.203 14.996-9.604 9.602-14.997 22.625-14.997 36.204v81.408zM657.067 89.6c0-13.581-5.393-26.603-14.997-36.203-9.6-9.604-22.622-14.997-36.203-14.997h-409.6c-13.579 0-26.602 5.393-36.204 14.997-9.602 9.6-14.996 22.622-14.996 36.203v512c0 13.579 5.394 26.602 14.996 36.204s22.625 14.996 36.204 14.996h51.2v-358.4c0-40.738 16.183-79.808 44.989-108.612s67.874-44.988 108.611-44.988h256v-51.2zM861.867 294.4c0-13.581-5.393-26.603-14.997-36.203-9.6-9.604-22.622-14.997-36.203-14.997h-409.6c-13.579 0-26.602 5.393-36.204 14.997-9.602 9.6-14.996 22.622-14.996 36.203v512c0 13.579 5.394 26.602 14.996 36.204s22.625 14.996 36.204 14.996h153.6v-153.6c0-40.737 16.183-79.806 44.988-108.612s67.874-44.988 108.612-44.988h153.6v-256z" />
<glyph unicode="&#xe90f;" glyph-name="cup" d="M938.47 771.716h-98.272v40.465c0 46.245-37.574 83.82-83.821 83.82h-430.655c-46.245 0-83.82-37.574-83.82-83.82v-40.465h-98.271c-46.245 0-83.82-37.574-83.82-86.709v-57.807c0-138.735 106.942-254.348 242.787-265.91 46.245-60.697 115.613-104.052 193.652-115.613v-158.97h-147.407c-26.013 0-43.355-20.23-43.355-43.354s20.232-43.354 43.355-43.354h384.416c26.010 0 43.354 20.23 43.354 43.354s-20.237 43.354-43.354 43.354h-147.41v158.97c78.040 11.562 147.41 54.916 193.65 115.613 135.846 11.562 242.79 127.174 242.79 265.91v57.807c0 49.135-37.574 86.709-83.821 86.709zM840.198 543.38v138.735h92.493v-52.026c0-72.258-43.354-132.955-104.051-161.858 8.672 23.123 11.558 49.135 11.558 75.148zM750.598 543.38c0-115.613-95.379-210.993-210.993-210.993s-210.993 95.38-210.993 210.993v263.020h421.986v-263.020zM149.412 682.116h92.49v-138.735c0-26.013 2.89-52.026 11.562-75.148-60.697 28.903-104.052 89.6-104.052 161.858v52.026z" />
<glyph unicode="&#xe910;" glyph-name="details" d="M512 896c-247.4 0-448-200.6-448-448 0-247.398 200.6-448 448-448 247.398 0 448 200.602 448 448 0 247.4-200.602 448-448 448zM512 76.001c-205.4 0-372 166.598-372 371.999s166.6 372 372 372c205.401 0 371.999-166.6 371.999-372s-166.598-371.999-371.999-371.999zM623.6 643.3c-30 26.3-69.601 40.7-111.6 40.7s-81.6-14.5-111.6-40.7c-31.2-27.3-48.4-64-48.4-103.3v-7.6c0-4.4 3.6-8 8-8h48c4.4 0 8 3.6 8 8v7.6c0 44.1 43.1 80 96 80s96-35.9 96-80c0-31.1-22-59.6-56.1-72.701-21.2-8.1-39.2-22.299-52.1-40.9-13.1-19-19.9-41.8-19.9-64.9v-21.5c0-4.4 3.6-8 7.999-8h48c4.4 0 8 3.6 8 8v22.7c0.051 9.708 3.027 19.175 8.539 27.166s13.304 14.137 22.36 17.634c59 22.7 97.1 74.7 97.1 132.5 0.1 39.3-17.1 76-48.3 103.3zM472 227.997c0-10.609 4.215-20.78 11.716-28.283s17.676-11.715 28.284-11.715c10.609 0 20.783 4.212 28.284 11.715s11.716 17.674 11.716 28.283c0 10.609-4.214 20.787-11.716 28.29-7.501 7.496-17.676 11.715-28.284 11.715s-20.783-4.219-28.284-11.715c-7.501-7.503-11.716-17.681-11.716-28.29z" />
<glyph unicode="&#xe911;" glyph-name="download" d="M32 326.406c8.487 0 16.626-3.372 22.627-9.373s9.373-14.14 9.373-22.627v-160c0-16.973 6.743-33.254 18.745-45.254s28.281-18.746 45.255-18.746h768c16.973 0 33.254 6.746 45.254 18.746s18.746 28.282 18.746 45.254v160c0 8.487 3.373 16.626 9.37 22.627 6.003 6.001 14.144 9.373 22.63 9.373s16.627-3.372 22.63-9.373c5.997-6.001 9.37-14.14 9.37-22.627v-160c0-33.946-13.485-66.502-37.491-90.509s-56.563-37.491-90.509-37.491h-768c-33.948 0-66.505 13.485-90.51 37.491s-37.49 56.563-37.49 90.509v160c0 8.487 3.371 16.626 9.373 22.627s14.14 9.373 22.627 9.373v0zM489.338 201.344c2.972-2.982 6.504-5.344 10.392-6.957s8.055-2.445 12.264-2.445c4.209 0 8.377 0.832 12.264 2.445s7.419 3.974 10.392 6.957l192 192c6.010 6.009 9.382 14.158 9.382 22.656s-3.373 16.647-9.382 22.656c-6.010 6.009-14.157 9.384-22.656 9.384s-16.646-3.375-22.656-9.384l-137.344-137.408v562.752c0 8.487-3.372 16.626-9.373 22.627s-14.14 9.373-22.627 9.373c-8.487 0-16.627-3.371-22.627-9.373s-9.373-14.14-9.373-22.627v-562.752l-137.344 137.408c-6.009 6.009-14.158 9.384-22.656 9.384s-16.647-3.375-22.656-9.384c-6.009-6.009-9.384-14.158-9.384-22.656s3.375-16.647 9.384-22.656l192-192z" />
<glyph unicode="&#xe912;" glyph-name="egitimler-menu" d="M229.984 936.908h0.001c90.728 0 164.278-73.55 164.278-164.278v-39.784c0-90.728-73.55-164.278-164.278-164.278h-0.001c-90.728 0-164.278 73.55-164.278 164.278v39.784c0 90.728 73.55 164.278 164.278 164.278zM777.572 936.908h0.001c90.728 0 164.278-73.55 164.278-164.278v-39.784c0-90.728-73.55-164.278-164.278-164.278h-0.001c-90.728 0-164.278 73.55-164.278 164.278v39.784c0 90.728 73.55 164.278 164.278 164.278zM229.984 323.012h0.001c90.728 0 164.278-73.55 164.278-164.278v-39.784c0-90.728-73.55-164.278-164.278-164.278h-0.001c-90.728 0-164.278 73.55-164.278 164.278v39.784c0 90.728 73.55 164.278 164.278 164.278zM777.572 323.012h0.001c90.728 0 164.278-73.55 164.278-164.278v-39.784c0-90.728-73.55-164.278-164.278-164.278h-0.001c-90.728 0-164.278 73.55-164.278 164.278v39.784c0 90.728 73.55 164.278 164.278 164.278z" />
<glyph unicode="&#xe913;" glyph-name="envelope" d="M921.6 857.6h-819.2c-56.474 0-102.4-45.926-102.4-102.4v-614.4c0-56.474 45.926-102.4 102.4-102.4h819.2c56.474 0 102.4 45.926 102.4 102.4v614.4c0 56.474-45.926 102.4-102.4 102.4zM921.6 755.2v-26.163l-409.6-318.618-409.6 318.566v26.214h819.2zM102.4 140.8v458.547l378.163-294.144c8.966-7.040 20.036-10.87 31.437-10.87s22.472 3.83 31.437 10.87l378.163 294.144 0.102-458.547h-819.302z" />
<glyph unicode="&#xe914;" glyph-name="filter" d="M798.72 860.9h-573.44c-32.59 0-63.845-12.946-86.889-35.991s-35.991-54.299-35.991-86.889v-47.923c-0.006-16.914 3.48-33.647 10.24-49.152v-2.458c5.787-13.147 13.983-25.095 24.166-35.226l252.314-250.674v-269.926c-0.014-6.963 1.747-13.812 5.115-19.902 3.369-6.095 8.234-11.227 14.137-14.914 6.518-4.043 14.040-6.169 21.709-6.144 6.41 0.037 12.726 1.581 18.432 4.506l163.84 81.92c6.754 3.404 12.435 8.61 16.413 15.045s6.091 13.844 6.115 21.41v188.006l250.675 250.674c10.183 10.131 18.379 22.079 24.166 35.226v2.458c7.324 15.383 11.37 32.122 11.878 49.152v47.923c0 32.59-12.947 63.845-35.992 86.889s-54.301 35.991-86.888 35.991zM564.838 398.463c-3.797-3.83-6.799-8.368-8.839-13.357-2.036-4.993-3.072-10.334-3.039-15.725v-179.405l-81.92-40.96v220.365c0.033 5.39-1.004 10.732-3.039 15.725-2.040 4.989-5.042 9.527-8.839 13.357l-217.088 216.677h539.853l-217.088-216.677zM839.68 697.060h-655.36v40.96c0 10.863 4.316 21.282 11.997 28.963s18.1 11.997 28.963 11.997h573.44c10.863 0 21.283-4.316 28.963-11.997s11.997-18.1 11.997-28.963v-40.96z" />
<glyph unicode="&#xe915;" glyph-name="gift" d="M839.979 731.826h-86.818c3.337 3.339 5.564 5.565 7.791 8.905 22.259 28.939 32.277 64.556 27.827 100.174-4.454 35.617-23.377 67.895-51.2 90.156-24.491 18.922-53.427 28.939-83.482 28.939-42.295 0-81.25-18.922-107.964-52.313-6.677-8.904-13.355-21.148-17.809-37.843-5.564 16.695-11.132 28.939-17.809 37.843-25.6 33.391-65.668 52.313-107.965 52.313-30.052 0-58.991-10.017-83.478-28.939-58.991-45.635-70.122-131.339-24.487-191.444 2.226-3.339 4.452-5.565 7.791-8.904h-86.818c-34.504 0-67.895-13.357-92.382-37.844-24.487-23.374-37.844-56.765-37.844-91.27v-535.373c0-72.35 57.878-130.227 130.226-130.227h624.419c71.232 0 130.223 57.877 130.223 130.227v535.373c0 71.235-57.877 130.226-130.223 130.226zM588.429 740.73c5.564 64.556 14.468 106.852 22.259 116.87 10.018 13.356 25.6 21.148 43.409 21.148 12.245 0 23.377-4.452 33.391-11.13 11.132-8.904 18.923-21.148 21.15-35.617s-2.227-28.939-11.132-40.070c-7.791-10.017-47.859-30.052-109.077-51.2zM568.393 523.686v125.775h271.586c26.709 0 47.859-21.148 47.859-47.861v-77.914h-319.445zM888.951 66.227c0-26.714-21.15-47.863-47.863-47.863h-272.695v422.959h319.445v-375.095h1.114zM348.012 830.887c2.226 14.47 8.905 26.713 21.148 35.618 10.018 7.791 21.148 11.13 33.391 11.13 16.696 0 32.278-7.791 43.41-21.148 7.791-10.017 16.695-52.313 22.259-116.87-61.217 21.148-100.173 41.183-107.965 50.087-10.017 12.243-14.47 26.713-12.244 41.182zM487.142 649.461v-126.888h-320.557v77.914c0 26.713 21.148 47.861 47.861 47.861h272.696v1.113zM487.142 441.323v-424.073h-271.583c-26.713 0-47.861 22.263-47.861 47.863v376.209h319.444z" />
<glyph unicode="&#xe916;" glyph-name="graphic" d="M896 106.667h-725.333v23.040l213.333 213.333 162.133-162.133c7.996-7.949 18.807-12.407 30.080-12.407s22.084 4.459 30.080 12.407l320 320c3.998 3.968 7.172 8.687 9.34 13.884 2.167 5.201 3.281 10.778 3.281 16.41s-1.114 11.209-3.281 16.409c-2.167 5.199-5.342 9.918-9.34 13.885-7.996 7.947-18.807 12.407-30.080 12.407s-22.084-4.46-30.080-12.407l-290.133-290.133-161.707 162.133c-7.994 7.949-18.808 12.407-30.080 12.407s-22.086-4.459-30.080-12.407l-183.467-183.040v220.587l213.333 213.333 119.467-119.467c7.996-7.947 18.807-12.407 30.080-12.407s22.084 4.46 30.080 12.407l204.373 204.373 93.44-93.44c8.034-7.978 18.91-12.437 30.229-12.397 11.324 0.040 22.165 4.576 30.144 12.611s12.437 18.909 12.399 30.231c-0.043 11.322-4.578 22.164-12.612 30.142l-124.16 123.307c-7.996 7.947-18.807 12.407-30.080 12.407s-22.084-4.46-30.080-12.407l-204.8-204.8-119.040 119.467c-7.994 7.947-18.808 12.407-30.080 12.407s-22.086-4.46-30.080-12.407l-182.613-182.613v240.213c0 11.316-4.495 22.168-12.497 30.17s-18.854 12.497-30.17 12.497c-11.316 0-22.168-4.495-30.17-12.497s-12.497-18.854-12.497-30.17v-768c0-11.315 4.495-22.17 12.497-30.17s18.854-12.497 30.17-12.497h768c11.315 0 22.17 4.497 30.17 12.497s12.497 18.854 12.497 30.17c0 11.315-4.497 22.17-12.497 30.17s-18.854 12.497-30.17 12.497z" />
<glyph unicode="&#xe917;" glyph-name="hide" d="M509.616 780.235c-301.057 0-488.428-277.082-488.428-277.082-10.526-14.055-10.526-34.134 0-48.188 0 0 187.371-277.084 488.428-277.084 301.054 0 488.428 277.084 488.428 277.084 10.523 14.055 10.523 34.134 0 48.188 0-2.008-187.374 277.082-488.428 277.082zM509.616 607.561c73.685 0 134.739-58.228 134.739-128.502s-61.053-128.501-134.739-128.501c-73.685 0-134.739 58.227-134.739 128.501-2.105 70.275 61.053 128.502 134.739 128.502zM509.616 521.224c-25.264 0-46.317-18.071-46.317-42.165s18.948-44.172 46.317-44.172c25.263 0 44.211 18.070 44.211 44.172 0 24.095-18.948 42.165-44.211 42.165z" />
<glyph unicode="&#xe918;" glyph-name="home" d="M996.44 514.6l-417.8 417.8c-17.8 17.8-41.4 27.6-66.6 27.6s-48.8-9.8-66.6-27.6l-417.6-417.6c-0.2-0.2-0.2-0.2-0.4-0.4-36.6-36.8-36.4-96.4 0.2-133.2 16.8-16.8 38.8-26.4 62.6-27.4 1 0 2-0.2 3-0.2h16.6v-307.403c0-60.796 49.4-110.395 110.4-110.395h163.4c16.6 0 30 13.4 30 29.996v241.203c0 27.799 22.6 50.398 50.4 50.398h96.4c27.8 0 50.4-22.6 50.4-50.398v-240.998c0-16.603 13.4-30.003 30-30.003h163.198c60.804 0 110.402 49.401 110.402 110.402v307.398h15.397c25.205 0 48.801 9.8 66.604 27.6 36.601 36.6 36.601 96.4 0 133.2z" />
<glyph unicode="&#xe919;" glyph-name="info" d="M191.798 788.671c-188.279-188.289-188.279-493.536 0-681.506 188.279-187.964 493.511-188.29 681.47 0 187.952 188.29 188.277 493.538 0 681.506-188.283 187.968-493.191 187.968-681.47 0zM551.969 727.622c40.805 0 73.255-33.417 73.255-74.223s-33.414-74.224-73.255-74.224c-40.805 0-74.219 33.417-74.219 75.188 0 40.485 33.736 73.259 74.219 73.259zM656.709 229.906c-1.928-6.102-6.102-13.173-10.282-17.348-26.341-27.311-59.116-43.701-97.671-43.701-18.314 0-35.664 0-53.977 2.891-29.559 4.18-67.151 40.809-62.010 79.366 4.177 26.347 8.032 53.019 12.209 79.364 8.032 45.626 16.386 92.538 24.418 138.486 0 2.892 0.964 6.105 0.964 8.997 0 19.279-6.104 26.348-25.382 28.597-8.032 0.964-16.386 1.928-24.418 4.177-8.997 2.892-14.137 11.246-13.173 18.315 0.964 8.033 6.105 13.174 16.386 15.102 5.141 0.964 11.245 0.964 17.35 0.964 22.491 0 44.66 0 68.115 0 24.418 0 47.873 0 72.291 0 17.35 0 27.312-8.033 27.312-25.384 0-14.138-1.928-28.597-5.144-42.735-8.995-53.017-19.276-104.748-28.594-157.763-2.892-17.354-7.069-34.702-8.996-51.73-0.964-8.035 0-17.354 1.928-25.389 2.892-11.246 11.245-17.348 22.491-16.384 8.996 0.964 18.316 4.174 27.309 8.035 7.072 2.891 13.173 8.029 20.245 10.276 12.529 4.18 21.847-2.891 18.631-14.137z" />
<glyph unicode="&#xe91a;" glyph-name="kontenjan" d="M970.307 458.705c-27.924 106.124-92.16 150.808-159.186 170.356 36.306 25.135 61.44 67.025 61.44 114.502 0 78.196-64.23 139.636-139.633 139.636-75.407 0-139.638-64.233-139.638-139.636 0-47.477 25.134-89.368 61.44-114.502-58.65-16.756-117.294-55.855-148.015-139.636-5.585 0-11.171 2.793-16.756 2.793s-11.171 0-16.756-2.793c-30.72 83.782-89.368 122.88-148.015 139.636 36.305 25.135 61.44 67.025 61.44 114.502 0 78.196-64.233 139.636-139.637 139.636s-139.636-64.233-139.636-139.636c0-47.477 25.135-89.368 61.44-114.502-75.403-19.549-139.636-67.025-167.564-170.356-5.585-22.342 8.378-44.682 30.72-50.268 2.793 0 8.378 0 11.171 0 19.549 0 36.306 11.172 41.891 30.718 13.964 53.062 44.684 117.295 156.392 117.295 103.331 0 136.844-53.062 150.808-100.538-27.928-25.134-47.476-61.442-47.476-103.329 0-78.198 64.232-139.638 139.636-139.638 75.401 0 139.637 64.23 139.637 139.638 0 41.887-16.758 78.195-47.478 103.329 13.962 47.477 50.268 100.538 150.81 100.538 111.708 0 142.428-61.44 156.39-117.295 5.586-19.547 22.344-30.718 41.892-30.718 2.79 0 8.376 0 11.172 0 25.134 2.79 39.096 27.926 33.51 50.268zM241.406 799.418c30.72 0 55.855-25.135 55.855-55.855s-25.135-55.855-55.855-55.855c-30.72 0-55.855 25.135-55.855 55.855s22.342 55.855 55.855 55.855zM487.166 291.144c-30.72 0-55.855 25.134-55.855 55.854s25.135 55.854 55.855 55.854c30.722 0 55.856-25.134 55.856-55.854s-25.134-55.854-55.856-55.854zM732.928 799.418c30.72 0 55.854-25.135 55.854-55.855s-25.134-55.855-55.854-55.855c-30.72 0-55.854 25.135-55.854 55.855s25.134 55.855 55.854 55.855zM487.214 193.377c-86.575 0-198.284-30.72-237.382-178.739-5.585-22.339 8.378-44.682 30.72-50.268s44.684 8.381 50.269 30.72c13.964 53.064 44.684 117.294 156.393 117.294s142.429-61.44 156.391-117.294c5.586-19.548 22.344-30.72 41.892-30.72 2.796 0 8.381 0 11.172 0 22.344 5.586 36.306 27.93 30.72 50.268-41.892 148.019-153.6 178.739-240.175 178.739z" />
<glyph unicode="&#xe91b;" glyph-name="kontor" d="M0 721.066v-546.131c0-157.016 242.346-238.936 481.28-238.936s481.28 81.92 481.28 238.936v546.131c0 157.014-242.346 238.934-481.28 238.934s-481.28-81.92-481.28-238.934zM481.28 52.056c-235.52 0-365.226 81.92-365.226 122.88v102.398c92.16-51.198 228.693-78.509 365.226-78.509s273.064 27.312 365.224 78.509v-102.398c0-40.96-129.704-122.88-365.224-122.88zM481.28 314.88c-235.52 0-365.226 81.92-365.226 122.88v119.466c92.16-51.2 228.693-78.506 365.226-78.506s273.064 27.306 365.224 78.506v-119.466c0-40.96-129.704-122.88-365.224-122.88zM846.504 721.066c0-40.96-129.704-122.88-365.224-122.88s-365.226 78.507-365.226 122.88c0 44.374 129.706 122.88 365.226 122.88s365.224-81.92 365.224-122.88z" />
<glyph unicode="&#xe91c;" glyph-name="left-arrow" d="M32.778 473.565c-1.967-1.967-1.967-3.933-3.933-5.9 0 0 0 0 0-1.967s-1.967-3.933-1.967-5.9v-1.967c0-1.967 0-5.9 0-7.866 0-1.965 0-5.902 0-7.868 0 0 0 0 0-1.966s1.967-3.932 1.967-5.898c0-1.966 1.967-3.937 3.933-5.903s3.933-3.932 3.933-5.898l239.939-241.905c7.867-7.869 19.667-11.802 29.5-11.802s21.634 3.932 29.501 11.802c15.734 15.734 15.734 43.269 0 59.003l-165.204 165.202h810.283c23.603 0 43.269 19.666 43.269 43.269 0 23.598-19.666 43.266-43.269 43.266l-810.283-0.001 165.204 165.204c7.867 7.867 11.8 17.7 11.8 29.5s-3.933 21.634-11.8 29.501c-15.734 15.733-43.268 15.733-59.001 0l-237.972-237.972c-1.967 0-3.933-1.967-5.9-3.934 1.967 0 0 0 0 0z" />
<glyph unicode="&#xe91d;" glyph-name="lessons" d="M945.384 882.019c-99.772 14.264-293.768 5.706-424.024-108.412-121.943 108.412-285.456 122.676-412.941 122.676-27.714 0-49.886-22.824-49.886-51.353v-713.23c0-28.535 22.172-51.357 49.886-51.357 102.542 0 290.998-34.236 382.455-128.382 8.314-8.561 22.171-14.261 33.257-14.261 13.857 0 24.943 5.7 33.257 14.261 105.314 108.414 310.397 105.561 379.681 105.561 13.858 0 24.945 5.707 36.031 14.261 8.315 8.561 13.858 22.828 13.858 34.236v727.501c0 25.676-19.401 45.647-41.574 48.5zM889.958 787.872v-627.643c-163.512-2.854-282.685-37.089-368.598-102.707-121.943 97-296.542 119.822-365.827 122.675v616.234c108.085-2.853 241.113-22.823 332.57-125.529 8.314-11.412 22.172-17.118 36.028-17.118s27.714 5.706 36.028 17.118c74.828 91.294 218.941 119.823 329.799 116.97zM524.039 610.983c-19.4 0-36.028-11.411-44.343-28.529l-138.571-285.293c-5.543-11.412-5.543-25.678-2.772-37.085 2.772-11.414 13.857-22.828 24.943-28.535 5.543-2.847 13.857-5.7 22.171-5.7 5.543 0 11.086 0 16.628 2.854 11.086 2.847 22.172 14.261 27.714 25.675l8.314 19.968h171.828l8.314-19.968c11.086-22.828 41.571-34.236 63.743-22.828 11.089 5.707 19.397 17.121 24.94 28.535 5.543 11.407 2.772 25.673-2.772 37.085l-138.568 285.293c-8.314 17.118-24.943 28.529-41.571 28.529zM560.067 374.189h-74.828l36.028 77.029 38.8-77.029z" />
<glyph unicode="&#xe91e;" glyph-name="level" d="M562.749 704h-116.321c-47.158 0-88.028-31.439-88.028-72.309v-430.711c0-40.868 37.726-72.305 88.028-72.305h116.321c47.16 0 88.028 31.437 88.028 72.305v430.711c0 40.87-37.724 72.309-88.028 72.309zM572.18 631.691v-430.711c0 0-3.144-3.144-6.287-3.144h-116.321c-6.287 0-6.287 3.144-6.287 3.144v430.711c0 0 3.144 3.144 6.287 3.144h116.321c3.144 0 6.287 0 6.287-3.144zM204.351 533.8h-116.323c-50.302 0-88.028-37.726-88.028-84.884v-220.072c0-47.155 37.726-88.028 88.028-88.028h116.323c47.158 0 88.028 37.729 88.028 88.028v220.072c-3.144 47.158-40.87 84.884-88.028 84.884zM210.639 448.916v-220.072c0-3.144-3.144-6.287-6.288-6.287h-116.323c-3.144 0-6.288 3.144-6.288 6.287v220.072c0 3.144 3.144 6.287 6.288 6.287h116.323c3.144 0 6.288-3.144 6.288-6.287zM899.149 857.6h-116.321c-47.155 0-88.028-37.726-88.028-88.028v-534.456c0-47.155 37.729-88.028 88.028-88.028h116.321c47.16 0 88.028 37.724 88.028 88.028v534.456c0 50.302-40.868 88.028-88.028 88.028zM908.58 769.572v-534.456c0-3.144-3.144-6.287-6.287-6.287h-116.321c-3.144 0-6.287 3.144-6.287 6.287v534.456c0 3.144 3.144 6.288 6.287 6.288h116.321c3.144 3.144 6.287 0 6.287-6.288z" />
<glyph unicode="&#xe91f;" glyph-name="live" d="M128 362.667c-11.316 0-22.168-4.497-30.17-12.497s-12.497-18.854-12.497-30.17c0-11.315 4.495-22.17 12.497-30.17s18.854-12.497 30.17-12.497c33.948 0 66.505-13.487 90.51-37.491s37.49-56.563 37.49-90.509c0-11.315 4.495-22.17 12.497-30.17s18.854-12.497 30.17-12.497c11.316 0 22.168 4.497 30.17 12.497s12.497 18.854 12.497 30.17c0 56.58-22.476 110.844-62.484 150.848-40.008 40.009-94.27 62.485-150.849 62.485zM97.707 179.627c-5.932-5.982-9.961-13.585-11.579-21.85-1.618-8.269-0.753-16.828 2.487-24.606 3.24-7.774 8.708-14.417 15.717-19.089 7.009-4.676 15.244-7.168 23.668-7.168s16.659 2.492 23.668 7.168c7.009 4.672 12.478 11.315 15.717 19.089 3.24 7.778 4.105 16.337 2.487 24.606-1.618 8.265-5.647 15.868-11.579 21.85-3.966 3.998-8.685 7.172-13.885 9.34s-10.776 3.281-16.409 3.281c-5.632 0-11.209-1.114-16.409-3.281s-9.918-5.342-13.885-9.34zM810.667 789.333h-597.333c-33.948 0-66.505-13.486-90.51-37.49s-37.49-56.562-37.49-90.51c0-11.316 4.495-22.168 12.497-30.17s18.854-12.497 30.17-12.497c11.316 0 22.168 4.495 30.17 12.497s12.497 18.854 12.497 30.17c0 11.316 4.495 22.168 12.497 30.17s18.854 12.497 30.17 12.497h597.333c11.315 0 22.17-4.495 30.17-12.497s12.497-18.854 12.497-30.17v-426.667c0-11.315-4.497-22.17-12.497-30.17s-18.854-12.497-30.17-12.497h-170.667c-11.315 0-22.17-4.497-30.17-12.497s-12.497-18.854-12.497-30.17c0-11.315 4.497-22.17 12.497-30.17s18.854-12.497 30.17-12.497h170.667c33.946 0 66.505 13.487 90.509 37.491s37.491 56.563 37.491 90.509v426.667c0 33.948-13.487 66.505-37.491 90.51s-56.563 37.49-90.509 37.49zM128 533.333c-11.316 0-22.168-4.497-30.17-12.497s-12.497-18.854-12.497-30.17c0-11.315 4.495-22.17 12.497-30.17s18.854-12.497 30.17-12.497c79.212 0 155.178-31.467 211.189-87.479 56.011-56.009 87.477-131.977 87.477-211.187 0-11.315 4.497-22.17 12.497-30.17s18.854-12.497 30.17-12.497c11.315 0 22.17 4.497 30.17 12.497s12.497 18.854 12.497 30.17c0 101.841-40.457 199.514-112.471 271.531-72.014 72.013-169.686 112.469-271.529 112.469z" />
<glyph unicode="&#xe920;" glyph-name="live-1" d="M836.432 784.891c-20.705 20.705-55.214 20.705-76.902 0-20.705-20.705-20.705-55.213 0-76.904 68.030-68.030 105.497-158.738 105.497-254.376s-37.466-186.343-105.497-254.374c-20.705-20.705-20.705-55.214 0-76.902 10.846-10.846 24.65-15.778 38.449-15.778 13.804 0 27.607 4.932 38.453 15.778 88.736 88.736 137.048 206.062 137.048 330.293 0 126.199-48.312 243.527-137.048 332.263zM145.254 453.714c0 96.621 37.466 186.343 105.497 254.373 20.705 20.705 20.705 55.213 0 76.904-20.705 20.705-55.213 20.705-76.904 0-88.735-88.735-137.047-206.063-137.047-331.278 0-124.232 50.283-244.515 138.033-331.28 10.845-10.846 24.648-15.774 38.452-15.774s27.607 4.927 38.452 15.774c20.705 21.692 20.705 55.214-0.986 76.902-67.045 66.060-105.497 158.642-105.497 254.378zM700.338 647.846c-20.705 21.691-55.214 21.691-76.906 0.986-21.688-20.705-21.688-55.213-0.983-76.904 31.547-31.551 49.295-73.945 49.295-118.313s-17.748-86.766-49.295-118.313c-20.705-21.692-20.705-55.214 0.983-76.906 10.846-10.846 24.65-15.774 38.453-15.774s27.607 4.927 38.453 15.774c52.253 52.257 80.847 121.27 80.847 195.219 0 73.056-28.594 142.074-80.847 194.231zM386.792 648.831c-20.705 20.705-55.213 20.705-76.904 0-52.255-52.256-80.848-122.258-80.848-195.22 0-73.945 28.593-142.959 80.848-195.215 10.845-10.846 24.648-15.774 38.452-15.774s27.607 4.927 38.452 15.774c20.705 20.705 20.705 55.214 0 76.902-31.55 31.551-49.297 73.949-49.297 118.313 0 44.368 17.747 86.766 49.297 118.316 21.691 20.705 21.691 55.213 0 76.904zM505.139 370.889c45.74 0 82.821 37.081 82.821 82.821s-37.081 82.821-82.821 82.821c-45.74 0-82.821-37.081-82.821-82.821s37.081-82.821 82.821-82.821z" />
<glyph unicode="&#xe921;" glyph-name="location-footer" d="M481.382 960c224.531 0 408.24-183.708 408.24-408.24 0-81.647-30.618-156.491-85.051-234.737-27.216-40.824-122.472-159.89-282.366-360.609-20.412-27.216-57.833-27.216-78.245 0-159.894 200.719-255.149 319.785-282.366 360.609-57.834 78.246-88.452 153.090-88.452 234.737 0 224.532 183.708 408.24 408.24 408.24zM481.382 857.94c-170.1 0-306.18-136.079-306.18-306.18 0-57.833 23.814-112.266 68.040-173.501 23.814-34.019 105.462-136.079 238.14-306.177 132.677 166.695 214.325 272.157 238.139 306.177 44.226 61.236 68.040 119.070 68.040 173.501 0 170.1-136.079 306.18-306.179 306.18zM481.382 704.851c85.050 0 153.089-68.040 153.089-153.090s-68.040-153.089-153.089-153.089c-85.051 0-153.090 68.040-153.090 153.089s68.040 153.090 153.090 153.090zM481.382 602.791c-27.216 0-51.030-23.814-51.030-51.030s23.814-51.030 51.030-51.030c27.216 0 51.030 23.814 51.030 51.030s-23.814 51.030-51.030 51.030z" />
<glyph unicode="&#xe922;" glyph-name="minus" d="M73.143 521.143h814.314c40.396 0 73.143-32.747 73.143-73.143s-32.747-73.143-73.143-73.143h-814.314c-40.396 0-73.143 32.747-73.143 73.143s32.747 73.143 73.143 73.143z" />
<glyph unicode="&#xe923;" glyph-name="movie" d="M307.2 192v-153.6h409.6v358.4h-409.6v-204.8zM204.8 294.4v102.4h-102.4v102.4h102.4v102.4h-102.4v-307.2h102.4zM204.8 192h-102.4v-51.2c0-27.156 10.788-53.202 29.992-72.407s45.25-29.993 72.408-29.993v153.6zM921.6 294.4v307.2h-102.4v-102.4h102.4v-102.4h-102.4v-102.4h102.4zM921.6 192h-102.4v-153.6c27.156 0 53.202 10.788 72.407 29.993s29.993 45.251 29.993 72.407v51.2zM716.8 601.6v256h-409.6v-358.4h409.6v102.4zM921.6 704v51.2c0 27.158-10.788 53.204-29.993 72.408s-45.251 29.992-72.407 29.992v-153.6h102.4zM204.8 704v153.6c-27.158 0-53.204-10.788-72.408-29.992s-29.992-45.25-29.992-72.408v-51.2h102.4zM204.8 960h614.4c54.318 0 106.409-21.577 144.814-59.984 38.41-38.408 59.986-90.499 59.986-144.816v-614.4c0-54.318-21.576-106.409-59.986-144.814-38.405-38.41-90.496-59.986-144.814-59.986h-614.4c-54.317 0-106.408 21.576-144.816 59.986-38.407 38.405-59.984 90.496-59.984 144.814v614.4c0 54.317 21.577 106.408 59.984 144.816s90.499 59.984 144.816 59.984v0z" />
<glyph unicode="&#xe924;" glyph-name="not-found" d="M951.596 825.475h-910.222c-22.756 0-41.374 18.618-41.374 41.374s18.618 41.374 41.374 41.374h910.222c22.756 0 41.373-18.618 41.373-41.374s-18.618-41.374-41.373-41.374zM372.364 618.606h-330.99c-22.756 0-41.374 18.618-41.374 41.374s18.618 41.374 41.374 41.374h330.99c22.756 0 41.374-18.618 41.374-41.374s-18.618-41.374-41.374-41.374zM289.616 411.739h-248.242c-22.756 0-41.374 18.618-41.374 41.373s18.618 41.373 41.374 41.373h248.242c22.756 0 41.374-18.618 41.374-41.373s-18.618-41.373-41.374-41.373zM289.616 204.868h-248.242c-22.756 0-41.374 18.618-41.374 41.373s18.618 41.373 41.374 41.373h248.242c22.756 0 41.374-18.618 41.374-41.373s-18.618-41.373-41.374-41.373zM703.355 163.495c-159.706 0-289.618 129.915-289.618 289.618 0 159.701 129.911 289.615 289.618 289.615 159.702 0 289.614-129.914 289.614-289.615s-129.911-289.618-289.614-289.618zM703.355 659.98c-114.195 0-206.871-92.677-206.871-206.867 0-114.191 92.676-206.871 206.871-206.871 114.191 0 206.867 92.68 206.867 206.871s-92.676 206.867-206.867 206.867zM289.616-1.999c-10.757 0-21.1 4.138-29.375 11.996-16.136 16.137-16.136 42.204 0 58.338l206.87 206.871c16.134 16.134 42.2 16.134 58.334 0 16.137-16.137 16.137-42.204 0-58.338l-206.867-206.871c-7.861-7.858-18.204-11.996-28.962-11.996z" />
<glyph unicode="&#xe925;" glyph-name="oda" d="M930.714 269.358l-205.592 209.904c-17.879 17.865-53.631 17.865-71.508 0s-17.878-53.592 0-71.457l205.591-205.436-129.611-129.516-205.592 205.436c-17.877 17.864-53.632 17.864-71.51 0-8.939-8.932-13.408-22.33-13.408-35.725 0-13.401 4.469-26.801 13.408-35.731l205.591-205.442c17.878-17.859 40.224-26.795 67.039-26.795s49.166 8.936 67.045 26.795l138.547 138.452c17.879 17.865 26.815 40.195 26.815 66.99 0 22.33-8.936 44.66-26.815 62.524zM103.896 693.632l129.612 129.516 218.999-218.836c17.878-17.864 53.632-17.864 71.51 0 8.939 13.398 13.408 26.796 13.408 40.194s-4.469 26.797-13.408 35.729l-223.469 218.836c-35.755 35.728-98.326 35.728-134.081 0l-138.551-138.447c-17.878-17.864-26.816-40.195-26.816-66.991s8.939-49.127 26.816-66.991l218.999-218.836c8.939-8.932 22.347-13.398 35.755-13.398s26.816 4.466 35.755 13.398c17.878 17.865 17.878 53.593 0 71.457l-214.53 214.37zM926.331 778.452l-107.261 102.719c-44.694 44.66-120.675 44.66-165.369 0l-581.019-580.586c-26.816-22.33-40.224-53.593-40.224-89.321l-13.408-133.98c-4.469-26.795 8.939-53.596 26.816-75.926 17.877-17.859 40.225-26.795 67.040-26.795 4.469 0 4.469 0 8.939 0l134.081 13.401c31.286 4.465 62.572 17.865 84.918 40.195l585.486 580.583c44.694 49.127 44.694 120.583 0 169.71zM689.459 773.986l35.751 35.728c4.471 4.467 8.936 4.467 13.408 4.467s8.943 0 13.408-4.467l107.267-107.185c4.471-4.466 4.471-8.932 4.471-13.398s0-8.932-4.471-13.398l-35.758-35.729-134.076 133.982zM130.784 202.336c0 8.929 4.469 17.859 13.408 22.33l473.754 477.864 129.615-129.516-473.757-473.399c-4.469-4.465-13.408-8.936-22.347-13.401l-134.081-8.929 13.408 125.051z" />
<glyph unicode="&#xe926;" glyph-name="penline" d="M249.862 224.013h158.805c4.929-0.026 9.815 0.915 14.379 2.771s8.714 4.595 12.213 8.058l259.18 258.717 106.368 103.787c3.514 3.471 6.298 7.6 8.198 12.149 1.907 4.55 2.886 9.429 2.886 14.358s-0.979 9.808-2.886 14.357c-1.901 4.55-4.685 8.679-8.198 12.149l-158.803 160.161c-3.48 3.499-7.622 6.276-12.187 8.172s-9.459 2.871-14.404 2.871c-4.945 0-9.84-0.975-14.404-2.871s-8.707-4.673-12.188-8.172l-105.62-105.654-259.93-258.72c-3.471-3.489-6.218-7.626-8.082-12.174s-2.808-9.419-2.78-14.333v-158.293c0-9.903 3.946-19.4 10.97-26.396 7.024-7.002 16.55-10.938 26.484-10.938zM615.412 731.373l105.996-105.653-53.184-53.014-105.996 105.653 53.185 53.014zM287.316 404.333l222.102 221.387 105.995-105.654-222.102-221.387h-105.995v105.654zM849.126 149.344h-674.172c-9.933 0-19.46-3.93-26.484-10.931s-10.97-16.499-10.97-26.4c0-9.901 3.946-19.398 10.97-26.4s16.551-10.931 26.484-10.931h674.172c9.933 0 19.456 3.93 26.483 10.931 7.021 7.002 10.97 16.499 10.97 26.4s-3.949 19.398-10.97 26.4c-7.027 7.002-16.55 10.931-26.483 10.931z" />
<glyph unicode="&#xe927;" glyph-name="phone" d="M998.332 211.852l-154.528 154.526c-33.99 33.995-95.805 33.995-129.795 0l-95.807-92.717-213.243 213.246 95.805 95.805c37.086 37.086 37.086 95.805 0 129.8l-154.524 154.524c-33.995 33.996-95.805 33.996-129.8 0l-108.167-108.166c-24.724-24.724-37.086-55.629-40.177-89.625-3.091-86.533 9.272-309.049 216.334-516.11 188.52-188.518 389.402-216.337 491.389-216.337 9.271 0 18.541 0 24.726 0 33.99 3.092 64.894 15.456 89.62 40.175l105.076 105.076c18.541 18.548 27.812 40.182 27.812 64.901 3.092 24.726-6.178 49.452-24.719 64.901zM333.876 551.807c-18.543-18.543-27.815-40.176-27.815-64.9s9.271-49.448 27.815-64.9l219.425-219.425c33.995-33.997 95.805-33.997 129.803 0l95.805 92.715 148.343-148.346-101.99-101.984c-6.178-6.178-15.449-12.363-27.812-12.363-74.172-3.092-262.693 6.185-445.032 188.518-179.248 179.251-191.61 370.861-185.429 441.942 0 9.271 6.181 18.543 12.362 27.815l101.986 101.986 148.343-148.343-95.805-92.715z" />
<glyph unicode="&#xe928;" glyph-name="pin" d="M524.825 406.757c21.602 0 42.721 6.406 60.682 18.407 17.965 12.001 31.961 29.061 40.231 49.021 8.266 19.96 10.428 41.918 6.214 63.108-4.215 21.188-14.615 40.65-29.893 55.926-15.274 15.276-34.738 25.678-55.927 29.893-21.185 4.214-43.147 2.051-63.107-6.216s-37.016-22.267-49.021-40.229c-12.001-17.962-18.407-39.080-18.407-60.682 0-28.971 11.51-56.75 31.994-77.234s48.267-31.994 77.234-31.994zM486.048 29.381c5.079-5.12 11.121-9.183 17.773-11.956 6.656-2.773 13.795-4.198 21.004-4.198s14.348 1.425 21.004 4.198c6.652 2.773 12.694 6.836 17.773 11.956l223.367 223.912c51.88 51.855 87.216 117.928 101.54 189.866s6.992 146.51-21.070 214.281c-28.058 67.771-75.588 125.697-136.573 166.452-60.989 40.756-132.69 62.509-206.041 62.509s-145.053-21.753-206.039-62.509c-60.986-40.755-108.515-98.681-136.577-166.452s-35.394-142.343-21.069-214.281c14.324-71.938 49.661-138.011 101.541-189.866l223.367-223.912zM264.319 541.107c3.731 38.939 16.112 76.552 36.237 110.094s47.488 62.167 80.089 83.783c42.828 28.12 92.946 43.103 144.179 43.103 51.237 0 101.351-14.983 144.179-43.103 32.383-21.543 59.593-49.993 79.667-83.306s32.518-70.661 36.434-109.358c3.916-38.696-0.791-77.78-13.783-114.439-12.993-36.663-33.948-69.988-61.358-97.583l-185.139-185.139-185.139 185.139c-27.442 27.329-48.446 60.428-61.483 96.895s-17.78 75.383-13.883 113.914z" />
<glyph unicode="&#xe929;" glyph-name="pin-filled" d="M490.179 936.727c-205.652 0-372.361-153.695-372.361-343.216 0.106-14.309 1.167-28.515 3.184-42.722 31.835-267.756 344.983-576.59 344.983-576.59 4.566-4.841 10.082-8.955 16.133-11.944l10.612-2.984 10.612 2.984c6.046 3.091 11.567 7.103 16.337 11.944 0 0 308.694 308.834 339.786 577.207 1.913 14 2.974 28.001 3.077 42.104 0 189.521-166.707 343.216-372.364 343.216zM490.179 462.154c-80.54 0-145.908 60.223-145.908 134.445s65.368 134.445 145.908 134.445c80.547 0 145.911-60.222 145.911-134.445s-65.364-134.445-145.911-134.445z" />
<glyph unicode="&#xe92a;" glyph-name="pin-line" d="M455.741 179.536l-0.020 0.025-201.218 201.708c-45.301 45.277-76.156 102.973-88.663 165.786-12.508 62.815-6.105 127.928 18.397 187.104s66.004 109.756 119.255 145.342c53.251 35.586 115.86 54.581 179.909 54.581 64.045 0 126.657-18.994 179.905-54.581 53.252-35.586 94.753-86.166 119.255-145.342s30.908-124.288 18.399-187.104c-12.509-62.812-43.364-120.508-88.662-165.786l-0.012-0.008-201.228-201.724c-3.621-3.65-7.93-6.55-12.677-8.524-4.747-1.978-9.839-2.998-14.979-2.998-5.145 0-10.236 1.020-14.983 2.998-4.747 1.974-9.056 4.874-12.677 8.524zM347.905 816.486l-0.038-0.025c-30.638-20.314-56.352-47.215-75.266-78.737-18.908-31.514-30.542-66.853-34.052-103.436-3.659-36.214 0.8-72.788 13.054-107.063 12.255-34.279 31.997-65.393 57.791-91.079 0.003-0.004 0.006-0.008 0.009-0.012l173.998-173.994 174.035 174.035c25.756 25.932 45.449 57.246 57.655 91.693 12.21 34.451 16.634 71.177 12.952 107.54-3.678 36.363-15.372 71.458-34.234 102.762-18.866 31.304-44.433 58.039-74.863 78.282l-0.053 0.034c-40.247 26.427-87.343 40.507-135.492 40.507s-95.248-14.080-135.497-40.507zM532.374 537.358c-14.496-9.683-31.539-14.852-48.972-14.852-23.38 0-45.801 9.286-62.333 25.817s-25.819 38.952-25.819 62.331c0 17.435 5.17 34.477 14.858 48.973 9.683 14.497 23.45 25.795 39.559 32.467 16.105 6.672 33.829 8.418 50.93 5.016s32.809-11.797 45.134-24.125c12.329-12.328 20.726-28.035 24.125-45.135 3.404-17.099 1.655-34.823-5.018-50.93-6.668-16.108-17.969-29.875-32.465-39.562zM111.49 38.019c7.305 7.307 17.213 11.411 27.545 11.411h688.73c10.334 0 20.242-4.104 27.546-11.411 7.307-7.303 11.411-17.211 11.411-27.546 0-10.33-4.104-20.238-11.411-27.546-7.303-7.303-17.211-11.407-27.546-11.407h-688.73c-10.331 0-20.24 4.104-27.545 11.407-7.306 7.307-11.41 17.215-11.41 27.546 0 10.334 4.104 20.242 11.41 27.546z" />
<glyph unicode="&#xe92b;" glyph-name="play" d="M512 960c-282.408 0-512-229.592-512-512s229.592-512 512-512c282.408 0 512 229.592 512 512s-229.592 512-512 512zM676.915 422.13l-241.446-160.606c-20.48-14.012-48.505 1.081-48.505 25.867v321.215c0 24.792 28.025 39.882 48.505 25.869l241.446-160.606c18.33-11.857 18.33-39.883 0-51.739z" />
<glyph unicode="&#xe92c;" glyph-name="plus" d="M73.143 521.143h877.714c40.396 0 73.143-32.747 73.143-73.143s-32.747-73.143-73.143-73.143h-877.714c-40.396 0-73.143 32.747-73.143 73.143s32.747 73.143 73.143 73.143zM585.143 886.857v-877.714c0-40.396-32.747-73.143-73.143-73.143s-73.143 32.747-73.143 73.143v877.714c0 40.396 32.747 73.143 73.143 73.143s73.143-32.747 73.143-73.143z" />
<glyph unicode="&#xe92d;" glyph-name="plus-stroke" d="M512 0c-118.817 0-232.767 47.2-316.784 131.219-84.016 84.013-131.216 197.964-131.216 316.781s47.2 232.767 131.216 316.784c84.017 84.016 197.967 131.216 316.784 131.216s232.768-47.2 316.781-131.216c84.019-84.017 131.219-197.967 131.219-316.784s-47.2-232.768-131.219-316.781c-84.013-84.019-197.964-131.219-316.781-131.219zM512-64c135.789 0 266.022 53.946 362.042 149.958 96.013 96.019 149.958 226.253 149.958 362.042 0 135.791-53.946 266.020-149.958 362.038-96.019 96.019-226.253 149.962-362.042 149.962-135.791 0-266.020-53.943-362.038-149.962s-149.962-226.248-149.962-362.038c0-135.789 53.943-266.022 149.962-362.042 96.019-96.013 226.248-149.958 362.038-149.958v0zM512 704c8.487 0 16.627-3.372 22.627-9.373s9.373-14.14 9.373-22.627v-192h192c8.486 0 16.627-3.372 22.63-9.373 5.997-6.001 9.37-14.14 9.37-22.627s-3.373-16.627-9.37-22.627c-6.003-6.001-14.144-9.373-22.63-9.373h-192v-192c0-8.486-3.372-16.627-9.373-22.63-6.001-5.997-14.14-9.37-22.627-9.37s-16.627 3.373-22.627 9.37c-6.001 6.003-9.373 14.144-9.373 22.63v192h-192c-8.487 0-16.627 3.372-22.627 9.373s-9.373 14.14-9.373 22.627c0 8.487 3.372 16.627 9.373 22.627s14.14 9.373 22.627 9.373h192v192c0 8.487 3.372 16.627 9.373 22.627s14.14 9.373 22.627 9.373v0z" />
<glyph unicode="&#xe92e;" glyph-name="presentation" d="M896 362.667h-42.667v426.667h42.667c11.315 0 22.17 4.495 30.17 12.497s12.497 18.854 12.497 30.17c0 11.316-4.497 22.168-12.497 30.17s-18.854 12.497-30.17 12.497h-768c-11.316 0-22.168-4.495-30.17-12.497s-12.497-18.854-12.497-30.17c0-11.316 4.495-22.168 12.497-30.17s18.854-12.497 30.17-12.497h42.667v-426.667h-42.667c-11.316 0-22.168-4.497-30.17-12.497s-12.497-18.854-12.497-30.17c0-11.315 4.495-22.17 12.497-30.17s18.854-12.497 30.17-12.497h341.333v-49.067l-194.133-128c-7.965-4.928-14.085-12.343-17.418-21.099-3.333-8.751-3.692-18.359-1.023-27.337 2.669-8.981 8.219-16.832 15.793-22.345 7.574-5.508 16.751-8.375 26.115-8.154 8.388-0.094 16.596 2.441 23.467 7.253l147.2 97.28v-61.867c0-11.315 4.497-22.17 12.497-30.17s18.854-12.497 30.17-12.497c11.315 0 22.17 4.497 30.17 12.497s12.497 18.854 12.497 30.17v61.867l147.2-97.28c6.869-4.813 15.078-7.347 23.467-7.253 9.114 0.068 17.971 3.059 25.263 8.525 7.296 5.47 12.646 13.129 15.27 21.858 2.624 8.734 2.381 18.074-0.691 26.658-3.068 8.58-8.811 15.953-16.375 21.039l-194.133 128v49.92h341.333c11.315 0 22.17 4.497 30.17 12.497s12.497 18.854 12.497 30.17c0 11.315-4.497 22.17-12.497 30.17s-18.854 12.497-30.17 12.497zM768 362.667h-512v426.667h512v-426.667zM410.027 436.907c11.372-6.72 24.337-10.261 37.547-10.261s26.176 3.541 37.547 10.261l128 74.24c10.944 6.716 19.981 16.128 26.249 27.331 6.272 11.204 9.562 23.829 9.562 36.669s-3.29 25.465-9.562 36.669c-6.268 11.205-15.305 20.615-26.249 27.331l-128 74.24c-11.371 6.719-24.337 10.263-37.547 10.263s-26.175-3.544-37.547-10.263c-11.459-6.46-20.958-15.897-27.493-27.314s-9.861-24.387-9.627-37.539v-148.48c0.071-12.864 3.542-25.481 10.061-36.57s15.854-20.258 27.059-26.577zM458.24 632.32l96.427-56.32-97.28-56.32 0.853 112.64z" />
<glyph unicode="&#xe92f;" glyph-name="refresh" d="M835.994 307.511h-185.549c-10.863 0-21.283-4.317-28.963-11.997-7.68-7.684-11.997-18.1-11.997-28.963s4.317-21.283 11.997-28.963c7.68-7.684 18.1-11.997 28.963-11.997h98.304c-45.183-47.219-103.449-79.843-167.313-93.692-63.869-13.849-130.417-8.282-191.096 15.978-60.68 24.265-112.718 66.118-149.43 120.181s-56.419 117.871-56.59 183.222c0 10.863-4.316 21.279-11.997 28.963-7.682 7.68-18.1 11.997-28.963 11.997s-21.282-4.317-28.963-11.997c-7.681-7.684-11.997-18.1-11.997-28.963 0.217-79.987 23.848-158.159 67.977-224.874 44.13-66.712 106.827-119.042 180.353-150.532 73.526-31.494 154.663-40.772 233.401-26.685s151.626 50.917 209.674 105.951v-72.499c0-10.863 4.317-21.283 11.997-28.963 7.68-7.684 18.1-11.997 28.963-11.997s21.283 4.313 28.963 11.997c7.68 7.68 11.997 18.1 11.997 28.963v184.32c-0.102 10.58-4.293 20.713-11.702 28.275-7.406 7.557-17.449 11.956-28.029 12.276zM512 860.88c-105.005-0.299-205.886-40.916-281.805-113.459v72.499c0 10.863-4.316 21.282-11.997 28.963s-18.1 11.997-28.963 11.997c-10.863 0-21.282-4.316-28.963-11.997s-11.997-18.1-11.997-28.963v-184.32c0-10.863 4.316-21.282 11.997-28.963s18.1-11.997 28.963-11.997h184.32c10.863 0 21.282 4.316 28.963 11.997s11.997 18.1 11.997 28.963c0 10.863-4.316 21.282-11.997 28.963s-18.1 11.997-28.963 11.997h-98.304c45.157 47.191 103.387 79.811 167.215 93.671s130.343 8.33 191.005-15.882c60.662-24.212 112.706-66.001 149.447-120.003 36.745-54.001 56.508-117.751 56.762-183.065 0-10.863 4.317-21.283 11.997-28.963 7.68-7.684 18.1-11.997 28.963-11.997s21.283 4.313 28.963 11.997c7.68 7.68 11.997 18.1 11.997 28.963 0 53.789-10.596 107.051-31.179 156.746-20.586 49.695-50.754 94.849-88.789 132.884s-83.19 68.206-132.887 88.79c-49.693 20.584-102.957 31.179-156.746 31.179z" />
<glyph unicode="&#xe930;" glyph-name="remote-connect" d="M63.988 345.6c-12.727 0-24.933-5.394-33.932-14.996s-14.055-22.625-14.055-36.204c0-13.579 5.056-26.602 14.055-36.204s21.205-14.996 33.932-14.996c38.181 0 74.799-16.183 101.797-44.988 26.998-28.808 42.166-67.877 42.166-108.612 0-13.578 5.056-26.604 14.055-36.202 9-9.605 21.205-14.998 33.932-14.998s24.933 5.393 33.933 14.998c9 9.598 14.055 22.624 14.055 36.202 0 67.898-25.279 133.010-70.276 181.019s-106.026 74.981-169.661 74.981zM29.916 125.952c-6.672-7.175-11.203-16.302-13.023-26.221s-0.847-20.193 2.797-29.525c3.644-9.332 9.794-17.299 17.677-22.91 7.883-5.605 17.145-8.602 26.619-8.602s18.737 2.997 26.619 8.602c7.883 5.612 14.034 13.578 17.678 22.91s4.617 19.606 2.797 29.525c-1.82 9.919-6.351 19.046-13.023 26.221-4.461 4.799-9.769 8.608-15.617 11.209-5.848 2.594-12.12 3.932-18.455 3.932s-12.607-1.338-18.455-3.932c-5.848-2.601-11.155-6.41-15.616-11.209zM831.788 857.6h-671.826c-38.181 0-74.798-16.183-101.797-44.988s-42.166-67.874-42.166-108.612c0-13.579 5.056-26.602 14.055-36.204s21.205-14.996 33.932-14.996c12.727 0 24.933 5.394 33.932 14.996s14.055 22.625 14.055 36.204c0 13.579 5.056 26.602 14.055 36.204s21.205 14.996 33.932 14.996h671.826c12.725 0 24.931-5.394 33.929-14.996 9.004-9.602 14.056-22.625 14.056-36.204v-512c0-13.579-5.052-26.604-14.056-36.202-8.998-9.605-21.204-14.998-33.929-14.998h-191.951c-12.727 0-24.933-5.393-33.933-14.998-8.999-9.598-14.055-22.624-14.055-36.202s5.056-26.604 14.055-36.202c9-9.605 21.206-14.998 33.933-14.998h191.951c38.182 0 74.8 16.186 101.799 44.988 26.993 28.809 42.161 67.878 42.161 108.612v512c0 40.737-15.169 79.806-42.161 108.612-26.999 28.806-63.618 44.988-101.799 44.988zM63.988 550.4c-12.727 0-24.933-5.394-33.932-14.996s-14.055-22.625-14.055-36.204c0-13.579 5.056-26.602 14.055-36.204s21.205-14.996 33.932-14.996c89.090 0 174.53-37.76 237.526-104.973s98.387-158.373 98.387-253.427c0-13.578 5.056-26.604 14.055-36.202 8.999-9.605 21.205-14.998 33.932-14.998s24.933 5.393 33.933 14.998c8.999 9.598 14.055 22.624 14.055 36.202 0 122.212-45.502 239.418-126.497 325.835s-190.847 134.965-305.39 134.965z" />
<glyph unicode="&#xe931;" glyph-name="right-arrow" d="M991.222 422.436c1.966 1.966 1.966 3.932 3.932 5.898 0 0 0 0 0 1.966s1.966 3.937 1.966 5.903v1.966c0 1.966 0 5.898 0 7.864 0 1.969 0 5.902 0 7.868 0 0 0 0 0 1.967s-1.966 3.934-1.966 5.9c0 1.967-1.966 3.934-3.932 5.9s-3.932 3.933-3.932 5.9l-239.939 241.905c-7.869 7.867-19.671 11.8-29.501 11.8-9.836 0-21.637-3.933-29.501-11.8-15.734-15.734-15.734-43.268 0-59.001l165.202-165.203h-810.282c-23.6 0-43.268-19.667-43.268-43.268s19.667-43.267 43.268-43.267h810.282l-165.202-165.207c-7.864-7.864-11.802-17.7-11.802-29.496 0-11.802 3.937-21.637 11.802-29.501 15.734-15.734 43.269-15.734 59.003 0l237.972 237.972c1.966 0 3.932 1.966 5.898 3.932-1.966 0 0 0 0 0z" />
<glyph unicode="&#xe932;" glyph-name="scale" d="M373.334 400.298l77.626-77.626-247.743-247.742h197.643v-110.106h-385.376v385.374h110.107v-197.642l247.743 247.742zM450.96 597.94l-77.626-77.626-247.743 247.743v-197.643h-110.107v385.376h385.376v-110.107h-197.643l247.743-247.743zM648.602 400.298l247.742-247.742v197.642h110.11v-385.374h-385.377v110.106h197.642l-247.742 247.742 77.626 77.626zM570.976 597.94l247.742 247.743h-197.642v110.107h385.377v-385.376h-110.11v197.643l-247.742-247.743-77.626 77.626z" />
<glyph unicode="&#xe933;" glyph-name="ship-car" d="M786.365 619.409c-19.59 24.487-48.974 34.282-78.358 34.282h-151.819c4.897 24.487 9.795 48.974 9.795 68.563-4.897 122.435-97.948 215.485-215.485 215.485s-205.69-93.050-205.69-210.588c0-24.487 4.897-44.077 9.795-68.563h-83.256c-39.179 0-68.563-34.282-68.563-68.563v-421.176c0-39.179 29.384-68.563 68.563-68.563h34.282c0-78.358 63.666-142.024 142.024-142.024s142.024 63.666 142.024 142.024h176.306c0-78.358 63.666-142.024 142.024-142.024s142.024 63.666 142.024 142.024h68.563c39.179 0 68.563 29.384 68.563 68.563v210.588c0 9.795-4.897 14.692-9.795 24.487l-190.998 215.485zM350.497 869.176c78.358 0 142.024-63.666 142.024-142.024 0-88.153-88.153-220.383-142.024-293.843-53.871 73.461-137.127 205.69-137.127 293.843 0 78.358 63.666 142.024 137.127 142.024zM247.652 26.824c-39.179 0-68.563 29.384-68.563 68.563s29.384 68.563 68.563 68.563c39.179 0 68.563-34.282 68.563-68.563s-29.384-68.563-68.563-68.563zM703.11 26.824c-39.179 0-68.563 29.384-68.563 68.563s34.282 68.563 68.563 68.563c39.179 0 68.563-34.282 68.563-68.563s-29.384-68.563-68.563-68.563zM913.697 168.849h-88.153c-24.487 39.179-68.563 68.563-122.435 68.563-48.974 0-97.948-29.384-122.435-68.563h-210.588c-24.487 39.179-73.461 68.563-122.435 68.563s-97.948-29.384-122.435-68.563h-53.871v421.176h107.743c34.282-78.358 97.948-171.409 146.922-230.177 4.897-9.795 14.692-14.692 24.487-14.692s24.487 9.795 24.487 14.692c48.974 58.769 112.64 156.717 146.922 230.177h176.306c9.795 0 19.59-4.897 24.487-9.795l181.203-210.588v-200.793h9.795z" />
<glyph unicode="&#xe934;" glyph-name="ship-device" d="M886.646 132.923h-401.723v59.077h401.723c31.508 0 59.077 27.569 59.077 59.077h-460.8v59.077h492.308c15.754 0 31.508-11.815 31.508-31.508v-31.508c0-59.077-55.138-114.215-122.092-114.215zM949.63 286.523h-59.077v452.923c0 31.508-27.569 59.077-59.077 59.077h-610.461c-31.508 3.938-59.077-23.631-59.077-59.077v-59.077h-63.015v59.077c0 66.954 55.138 122.092 122.092 122.092h606.522c66.954 0 122.092-55.138 122.092-122.092v-452.923zM394.338 73.815h-240.246c-66.954 0-122.092 55.138-122.092 122.092v393.847c0 66.954 55.138 122.092 122.092 122.092h244.185c66.954 0 122.092-55.138 122.092-122.092v-393.847c-3.938-66.954-59.077-122.092-126.031-122.092zM154.092 648.831c-31.508 0-59.077-27.569-59.077-59.077v-393.847c0-31.508 27.569-59.077 59.077-59.077h244.185c31.508 0 59.077 27.569 59.077 59.077v393.847c0 31.508-27.569 59.077-59.077 59.077h-244.185zM276.185 164.399c0 0-3.938 0-7.877 0h-3.938c0 0-3.938 0-3.938 3.938l-11.815 11.815v3.938c0 3.938 0 3.938 0 7.877 0 7.877 3.938 15.754 7.877 19.692l7.877 7.877h3.938c3.938 0 7.877 0 11.815 0s3.938 0 3.938 0 3.938 0 3.938-3.938l3.938-3.938c3.938-3.938 7.877-11.815 7.877-19.692v-7.877c0 0 0-3.938-3.938-3.938-3.938-3.938-3.938-7.877-7.877-7.877l-3.938-3.938h-3.938c0-3.938-3.938-3.938-3.938-3.938z" />
<glyph unicode="&#xe935;" glyph-name="ship-security" d="M100.476 699.216c-4.828-250.943-9.656-590.453 395.889-733.145h4.828c4.828 0 14.484-4.925 24.14 0 405.543 142.692 400.715 477.282 395.888 728.224v14.761c0 24.602 0 49.205 0 68.886 0 24.602-19.31 39.364-38.624 39.364-144.837 0-251.051 44.284-342.78 132.852-9.656 4.92-19.312 9.841-28.967 9.841s-19.312-4.92-28.967-9.841c-86.902-88.568-197.944-132.852-337.954-132.852-24.14 0-43.451-19.682-43.451-39.364 0-24.602 0-49.205 0-78.727zM187.378 699.216c0 9.841 0 14.761 0 19.682s0 4.92 0 9.841c130.354 9.841 236.567 49.205 323.47 127.932 91.732-78.727 197.945-118.091 323.468-123.011 0-9.841 0-19.682 0-29.523 4.832-241.103 9.66-516.647-323.468-644.579-333.126 123.012-328.298 398.555-323.47 639.659zM679.863 586.040c-4.827 4.921-14.482 9.841-28.965 9.841-9.66 0-19.315-4.92-28.969-14.761l-159.321-162.377-62.763 73.808c-9.656 4.921-19.312 9.841-28.967 9.841s-19.312-4.921-28.967-9.841c-14.483-14.761-14.483-39.363 0-59.043l96.558-93.491c9.656-9.84 19.312-9.84 28.967-9.84s19.312 4.92 28.967 9.84l183.459 186.978c14.487 14.761 14.487 44.284 0 59.045z" />
<glyph unicode="&#xe936;" glyph-name="show" d="M509.616 720c-301.057 0-488.428-277.082-488.428-277.082-10.526-14.055-10.526-34.134 0-48.188 0 0 187.371-277.084 488.428-277.084 301.054 0 488.428 277.084 488.428 277.084 10.523 14.055 10.523 34.134 0 48.188 0-2.008-187.374 277.082-488.428 277.082zM509.616 547.326c73.685 0 134.739-58.228 134.739-128.502s-61.054-128.502-134.739-128.502c-73.685 0-134.739 58.228-134.739 128.502-2.105 70.275 61.053 128.502 134.739 128.502zM509.616 460.989c-25.264 0-46.317-18.071-46.317-42.165s18.948-44.172 46.317-44.172c25.263 0 44.211 18.070 44.211 44.172 0 24.095-18.948 42.165-44.211 42.165z" />
<glyph unicode="&#xe937;" glyph-name="sort" d="M933.647 869.647h-881.626c-30.118 0-52.021-21.904-52.021-52.021 0-27.38 21.904-52.021 52.021-52.021h881.626c27.377 0 52.019 21.903 52.019 52.021s-24.642 52.021-52.019 52.021zM621.52 513.706h-569.498c-27.38 0-52.021-21.904-52.021-52.022s21.904-52.021 52.021-52.021h569.498c27.377 0 52.019 21.903 52.019 52.021s-21.902 52.022-52.019 52.022zM309.39 130.385h-257.369c-27.38 0-52.021-21.908-52.021-52.025 0-27.377 21.904-52.019 52.021-52.019h260.107c27.379 0 52.021 21.902 52.021 52.019-2.738 30.118-24.642 52.025-54.759 52.025z" />
<glyph unicode="&#xe938;" glyph-name="star" d="M990.906 589.956l-306.976 43.798-137.228 273.117c-3.748 7.478-9.914 13.531-17.532 17.211-19.103 9.258-42.316 1.543-51.868-17.211l-137.226-273.117-306.975-43.798c-8.463-1.187-16.201-5.103-22.125-11.039-7.162-7.227-11.109-16.949-10.973-27.032s4.344-19.699 11.698-26.737l222.101-212.582-52.472-300.177c-1.231-6.982-0.444-14.17 2.272-20.736s7.251-12.25 13.091-16.416c5.841-4.166 12.753-6.637 19.953-7.142s14.401 0.986 20.783 4.294l274.573 141.722 274.57-141.722c7.501-3.917 16.205-5.222 24.544-3.802 21.037 3.558 35.187 23.149 31.558 43.802l-52.474 300.177 222.099 212.582c6.048 5.816 10.035 13.412 11.245 21.721 3.264 20.772-11.482 40-32.64 43.086v0zM696.742 342.478l43.648-249.614-228.388 117.741-228.388-117.862 43.646 249.617-184.741 176.856 255.349 36.439 114.134 227.063 114.133-227.063 255.349-36.439-184.742-176.737z" />
<glyph unicode="&#xe93a;" glyph-name="target" d="M756.933 940.991c7.022-2.903 13.025-7.824 17.249-14.14s6.479-13.743 6.482-21.342v-192h192c7.603 0.014 15.040-2.231 21.368-6.45s11.261-10.22 14.172-17.247c2.913-7.025 3.674-14.756 2.186-22.213s-5.156-14.308-10.54-19.676l-153.6-153.6c-3.574-3.564-7.813-6.39-12.48-8.312-4.664-1.925-9.661-2.911-14.707-2.9h-214.502l-56.832-56.909c3.036-11.387 3.415-23.316 1.106-34.872-2.307-11.556-7.24-22.426-14.418-31.772-7.178-9.344-16.407-16.914-26.977-22.124-10.568-5.212-22.193-7.923-33.976-7.923-20.37 0-39.905 8.090-54.308 22.492s-22.492 33.938-22.492 54.308l0.077 3.533c0.525 11.471 3.617 22.679 9.050 32.799 5.432 10.117 13.064 18.89 22.333 25.669s19.942 11.395 31.229 13.501c11.29 2.109 22.909 1.661 34.002-1.313l56.909 56.909v214.501c-0.010 5.046 0.975 10.044 2.9 14.71 1.923 4.665 4.746 8.905 8.312 12.478l153.6 153.6c5.373 5.367 12.219 9.020 19.668 10.496s15.171 0.71 22.188-2.202zM803.167 559.91l76.8 76.8h-137.702c-10.186 0-19.953 4.045-27.154 11.246s-11.246 16.968-11.246 27.154v137.701l-76.8-76.8v-176.101h176.102zM930.040 469.594c13.251-95.629-3.868-193.001-48.94-278.374-45.071-85.376-115.817-154.437-202.25-197.437-86.436-43.003-184.195-57.769-279.473-42.22-95.281 15.549-183.271 60.634-251.549 128.886-68.278 68.25-113.395 156.221-128.983 251.497-15.588 95.273-0.858 193.037 42.109 279.488s112.002 157.225 197.359 202.329c85.356 45.104 182.723 62.26 278.356 49.047l-29.414-29.414c-12.175-12.175-21.466-26.924-27.187-43.162l-6.605 0.077c-76.229-0.011-150.728-22.709-214.011-65.203s-112.488-102.86-141.348-173.414c-28.86-70.551-36.069-148.099-20.709-222.761s52.594-143.066 106.96-196.495c54.367-53.432 123.405-89.475 198.324-103.537s152.325-5.509 222.367 24.571c70.042 30.080 129.546 80.325 170.936 144.335s62.792 138.893 61.481 215.109c16.174 5.719 30.868 14.984 43.008 27.11l29.491 29.568h0.077zM473.464 675.11c-53.164 0-105.134-15.767-149.338-45.302-44.204-29.537-78.658-71.516-99.002-120.635-20.345-49.116-25.668-103.163-15.296-155.305s35.973-100.037 73.564-137.631c37.594-37.591 85.489-63.191 137.631-73.564 52.142-10.371 106.189-5.048 155.305 15.296 49.119 20.344 91.098 54.799 120.635 99.003 29.535 44.204 45.302 96.174 45.302 149.338h-76.8c0-37.975-11.261-75.095-32.358-106.67s-51.085-56.184-86.167-70.715c-35.085-14.533-73.69-18.335-110.932-10.926-37.245 7.409-71.457 25.695-98.307 52.547-26.852 26.852-45.138 61.061-52.547 98.307-7.409 37.243-3.607 75.848 10.926 110.932 14.531 35.082 39.14 65.070 70.715 86.167 31.572 21.097 68.695 32.358 106.67 32.358v76.8z" />
<glyph unicode="&#xe93b;" glyph-name="time" d="M530.824 929.882c-265.527 0-481.882-216.356-481.882-481.882 0-265.529 216.356-481.882 481.882-481.882 265.529 0 481.882 216.353 481.882 481.882 0 265.527-216.353 481.882-481.882 481.882zM914.36 448c0-213.076-173.737-383.536-383.536-383.536s-383.539 170.46-383.539 383.536c0 213.078 170.462 383.539 383.539 383.539s383.536-170.462 383.536-383.539zM580.049 467.634v177.018c0 26.225-22.947 49.171-49.171 49.171s-49.172-22.947-49.172-49.171v-196.687c0-13.112 6.556-26.225 13.113-36.059l150.795-150.792c9.83-9.836 22.944-13.113 36.057-13.113s26.226 6.554 36.057 13.113c19.673 19.667 19.673 49.17 0 68.839l-137.679 137.681z" />
<glyph unicode="&#xe93c;" glyph-name="translate" d="M853.333 874.667h-426.667c-33.948 0-66.505-13.486-90.51-37.49s-37.49-56.562-37.49-90.51v-298.667c0-33.946 13.486-66.505 37.49-90.509s56.562-37.491 90.51-37.491h426.667c33.946 0 66.505 13.487 90.509 37.491s37.491 56.563 37.491 90.509v298.667c0 33.948-13.487 66.505-37.491 90.51s-56.563 37.49-90.509 37.49zM896 448c0-11.315-4.497-22.17-12.497-30.17s-18.854-12.497-30.17-12.497h-426.667c-11.316 0-22.168 4.497-30.17 12.497s-12.497 18.854-12.497 30.17v298.667c0 11.316 4.495 22.168 12.497 30.17s18.854 12.497 30.17 12.497h426.667c11.315 0 22.17-4.495 30.17-12.497s12.497-18.854 12.497-30.17v-298.667zM746.667 618.667c-15.795-0.053-31.006-5.985-42.667-16.64-9.173 8.339-20.574 13.834-32.815 15.817-12.237 1.982-24.789 0.367-36.126-4.649s-20.975-13.218-27.742-23.608c-6.763-10.39-10.364-22.522-10.364-34.92s3.601-24.529 10.364-34.918c6.767-10.394 16.405-18.594 27.742-23.607 11.337-5.018 23.889-6.635 36.126-4.651 12.241 1.984 23.642 7.479 32.815 15.817 7.706-7.002 17.003-12.019 27.085-14.618 10.082-2.594 20.646-2.692 30.775-0.282s19.516 7.253 27.349 14.114c7.834 6.861 13.875 15.526 17.6 25.25 3.725 9.721 5.022 20.205 3.776 30.543-1.242 10.337-4.988 20.215-10.914 28.776s-13.85 15.548-23.087 20.353c-9.237 4.806-19.507 7.285-29.918 7.223zM682.667 234.667c-11.315 0-22.17-4.497-30.17-12.497s-12.497-18.854-12.497-30.17v-42.667c0-11.315-4.497-22.17-12.497-30.17s-18.854-12.497-30.17-12.497h-426.667c-11.316 0-22.168 4.497-30.17 12.497s-12.497 18.854-12.497 30.17v170.667h42.667c11.316 0 22.168 4.497 30.17 12.497s12.497 18.854 12.497 30.17c0 11.315-4.495 22.17-12.497 30.17s-18.854 12.497-30.17 12.497h-42.667v42.667c0 11.315 4.495 22.17 12.497 30.17s18.854 12.497 30.17 12.497c11.316 0 22.168 4.497 30.17 12.497s12.497 18.854 12.497 30.17c0 11.316-4.495 22.168-12.497 30.17s-18.854 12.497-30.17 12.497c-33.948 0-66.505-13.486-90.51-37.49s-37.49-56.564-37.49-90.51v-298.667c0-33.946 13.486-66.505 37.49-90.509s56.562-37.491 90.51-37.491h426.667c33.946 0 66.505 13.487 90.509 37.491s37.491 56.563 37.491 90.509v42.667c0 11.315-4.497 22.17-12.497 30.17s-18.854 12.497-30.17 12.497zM256 192h42.667c11.316 0 22.168 4.497 30.17 12.497s12.497 18.854 12.497 30.17c0 11.315-4.495 22.17-12.497 30.17s-18.854 12.497-30.17 12.497h-42.667c-11.316 0-22.168-4.497-30.17-12.497s-12.497-18.854-12.497-30.17c0-11.315 4.495-22.17 12.497-30.17s18.854-12.497 30.17-12.497z" />
<glyph unicode="&#xe93d;" glyph-name="trash" d="M56.889 732.444c0 15.088 5.994 29.558 16.662 40.227s25.139 16.662 40.227 16.662h796.444c15.087 0 29.559-5.994 40.226-16.662s16.663-25.139 16.663-40.227c0-15.088-5.996-29.558-16.663-40.227s-25.139-16.662-40.226-16.662v-568.889c0-45.261-17.983-88.673-49.988-120.678s-75.418-49.988-120.678-49.988h-455.111c-45.264 0-88.673 17.983-120.68 49.988s-49.987 75.418-49.987 120.678v568.889c-15.088 0-29.558 5.994-40.227 16.662s-16.662 25.139-16.662 40.227zM227.556 675.556v-568.889c0-15.087 5.994-29.559 16.662-40.226s25.139-16.663 40.227-16.663h455.111c15.087 0 29.559 5.996 40.226 16.663s16.663 25.139 16.663 40.226v568.889h-568.889zM455.111 846.222c-15.088 0-29.558-5.994-40.227-16.662s-16.662-25.139-16.662-40.227v-56.889c0-15.088-5.994-29.558-16.662-40.227s-25.139-16.662-40.227-16.662c-15.088 0-29.558 5.994-40.227 16.662s-16.662 25.139-16.662 40.227v56.889c0 45.264 17.981 88.673 49.987 120.68s75.416 49.987 120.68 49.987h113.778c45.264 0 88.673-17.981 120.678-49.987s49.988-75.416 49.988-120.68v-56.889c0-15.088-5.996-29.558-16.663-40.227s-25.139-16.662-40.226-16.662c-15.087 0-29.559 5.994-40.226 16.662s-16.663 25.139-16.663 40.227v56.889c0 15.088-5.994 29.558-16.662 40.227s-25.139 16.662-40.227 16.662h-113.778zM398.222 561.778c15.088 0 29.558-5.994 40.227-16.662s16.662-25.139 16.662-40.227v-284.444c0-15.087-5.994-29.559-16.662-40.226s-25.139-16.663-40.227-16.663c-15.088 0-29.558 5.996-40.227 16.663s-16.662 25.139-16.662 40.226v284.444c0 15.088 5.994 29.558 16.662 40.227s25.139 16.662 40.227 16.662v0zM625.778 561.778c15.087 0 29.559-5.994 40.226-16.662s16.663-25.139 16.663-40.227v-284.444c0-15.087-5.996-29.559-16.663-40.226s-25.139-16.663-40.226-16.663c-15.088 0-29.558 5.996-40.227 16.663s-16.662 25.139-16.662 40.226v284.444c0 15.088 5.994 29.558 16.662 40.227s25.139 16.662 40.227 16.662v0z" />
<glyph unicode="&#xe93e;" glyph-name="unlimited-video" d="M837.127 886.857h-684.923c-83.712 0-152.204-68.492-152.204-152.204v-380.513c0-83.713 68.492-152.204 152.204-152.204h684.923c83.712 0 152.203 68.492 152.203 152.204v380.513c0 83.712-68.491 152.204-152.203 152.204zM913.225 354.14c0-43.124-35.511-76.102-76.098-76.102h-684.923c-43.124 0-76.102 35.515-76.102 76.102v380.513c0 43.124 32.978 76.102 76.102 76.102h684.923c43.125 0 76.098-32.978 76.098-76.102v-380.513zM603.772 572.258l-185.182 109.079c-10.147 5.074-20.294 5.074-30.441 0s-15.221-15.22-15.221-25.367v-218.16c0-10.146 5.074-20.293 15.221-25.367 5.073-2.537 10.146-5.073 15.22-5.073s10.147 2.537 15.22 5.073l185.182 109.080c10.147 5.074 15.221 15.221 15.221 25.367 0 7.611-5.074 20.294-15.221 25.368zM946.125 113.203h-814.297c-12.684 20.29-32.977 35.511-60.882 35.511-43.125 0-76.102-38.049-68.492-81.174 5.074-27.904 27.904-50.739 55.808-55.808 30.441-5.076 58.345 10.145 73.565 32.973h814.297c20.29 0 35.511 15.221 35.511 35.518 0 17.759-15.221 32.98-35.511 32.98z" />
<glyph unicode="&#xe93f;" glyph-name="user" d="M959.955 66.368c-56.416 232.294-209.069 348.442-448.003 348.442s-388.267-119.466-448-348.442c-6.637-29.869 9.956-59.738 39.822-66.374 3.318 0 9.956 0 13.274 0 9.956 0 19.911 3.322 26.548 6.637 13.274 6.637 19.911 19.917 23.229 33.19 16.593 66.368 66.37 265.479 341.807 265.479 275.436 0 325.215-199.111 341.811-265.479 6.637-23.232 26.547-39.827 53.094-39.827 3.315 0 9.952 0 13.274 0 33.184 6.637 49.779 36.506 43.142 66.374zM511.962 438.045c126.104 0 228.979 102.874 228.979 228.977s-102.875 228.978-228.979 228.978c-126.104 0-228.978-102.874-228.978-228.978s102.874-228.977 228.978-228.977zM511.962 789.807c66.371 0 122.785-53.096 122.785-122.785s-53.096-122.785-122.785-122.785c-69.689 0-119.467 56.415-119.467 122.785s53.096 122.785 119.467 122.785z" />
<glyph unicode="&#xe940;" glyph-name="video-cam" d="M918.49 194.387l-185.075 107.251v-34.502c0-61.555-49.472-111.917-109.942-111.917h-448.027c-60.47 0-109.945 50.362-109.945 111.917v348.799c0 61.553 49.475 111.915 109.945 111.915h448.943c60.469 0 109.948-50.362 109.948-111.915v-34.507l184.154 108.184c34.816 20.518 63.219 3.731 63.219-37.305v-419.681c0-41.971-28.403-58.758-63.219-38.24z" />
<glyph unicode="&#xe941;" glyph-name="video-cam-1" d="M1004.171 594.155c-4.412 35.308-22.067 63.995-48.547 79.442-28.687 17.654-63.994 17.654-92.684 4.413l-154.47-77.235v-81.649l187.573 94.889c6.62 4.413 15.447 2.207 22.067 0 6.62-4.413 11.032-11.034 11.032-19.86v-286.874c0-8.827-4.412-15.447-11.032-19.86-6.62-4.415-13.24-4.415-22.067 0l-187.573 92.681v-79.441l156.678-77.237c28.687-15.447 63.994-13.24 92.684 4.415 28.687 17.652 46.339 48.547 46.339 81.649v284.666zM571.844 809.412h-401.569c-88.345 0-160.628-72.282-160.628-160.627v-401.57c0-88.344 72.282-160.626 160.628-160.626h401.569c88.344 0 160.626 72.282 160.626 160.626v401.57c0 88.345-72.282 160.627-160.626 160.627zM652.155 247.215c0-45.511-37.478-80.312-80.312-80.312h-401.569c-45.511 0-80.314 37.478-80.314 80.312v401.57c0 45.511 34.803 80.314 80.314 80.314h401.569c45.511 0 80.312-34.802 80.312-80.314v-401.57zM512.825 480.169l-195.43 115.117c-10.71 5.354-21.417 5.354-32.126 0s-18.74-16.063-18.74-26.771v-230.233c0-10.707 5.354-21.417 16.063-26.772 5.354-2.677 10.709-5.355 16.063-5.355 5.356 0 10.707 2.677 16.062 5.355l195.43 115.116c10.71 5.355 16.062 16.065 16.062 26.772 2.677 10.71-2.677 21.417-13.384 26.772z" />
<glyph unicode="&#xe942;" glyph-name="windows" d="M-0.053 776.385l406.017 50.836 0.177-360.052-405.824-2.125-0.371 311.34zM405.771 425.684l0.315-360.364-405.824 51.292-0.023 311.489 405.532-2.417zM454.99 833.871l538.344 72.234v-434.357l-538.344-3.929v366.052zM993.458 422.295l-0.124-432.401-538.345 69.853-0.755 363.357 539.223-0.809z" />
<glyph unicode="&#xe943;" glyph-name="world" d="M509.961 946.118c-276.781 0-501.961-225.179-501.961-501.961s225.18-501.962 501.961-501.962c276.781 0 501.962 225.181 501.962 501.962s-225.181 501.961-501.962 501.961zM108.392 444.157c0 45.125 7.831 88.446 21.634 128.955l179.149-179.152v-100.391l150.588-150.588v-96.928c-197.721 24.847-351.372 193.705-351.372 398.104zM827.702 199.55c-32.777 26.404-82.471 43.821-116.956 43.821v50.197c0 26.627-10.577 52.161-29.407 70.987-18.827 18.827-44.36 29.404-70.987 29.404h-200.782v150.588c26.624 0 52.161 10.577 70.987 29.404 18.827 18.83 29.404 44.363 29.404 70.99v50.195h50.197c26.624 0 52.161 10.577 70.987 29.404s29.404 44.362 29.404 70.988v20.631c146.974-59.683 250.979-203.847 250.979-372.003-0.009-88.582-29.5-174.64-83.826-244.606z" />
<glyph unicode="&#xe944;" glyph-name="down" d="M576.438 212.821c-40.869-56.682-125.256-56.682-166.124 0l-176.153 244.322c-48.832 67.729-0.435 162.287 83.062 162.287h352.307c83.494 0 131.895-94.558 83.063-162.287l-176.155-244.322z" />
<glyph unicode="&#xe945;" glyph-name="map-pin" d="M458.482 457.617v-208.896c0-10.863 4.313-21.283 11.997-28.963 7.68-7.68 18.096-11.997 28.963-11.997 10.863 0 21.279 4.317 28.963 11.997 7.68 7.68 11.997 18.1 11.997 28.963v208.896c49.725 10.15 93.913 38.404 123.994 79.282 30.077 40.878 43.909 91.469 38.806 141.964-5.1 50.496-28.77 97.298-66.417 131.335s-86.594 52.881-137.343 52.881c-50.754 0-99.699-18.845-137.347-52.881s-61.317-80.839-66.418-131.335c-5.101-50.495 8.729-101.086 38.809-141.964s74.267-69.132 123.996-79.282zM499.442 781.202c24.302 0 48.058-7.207 68.268-20.709 20.206-13.502 35.955-32.693 45.257-55.147s11.735-47.161 6.992-70.997c-4.739-23.836-16.445-45.731-33.628-62.917-17.187-17.185-39.080-28.889-62.919-33.628-23.835-4.743-48.542-2.31-70.996 6.992-22.454 9.299-41.644 25.049-55.146 45.257s-20.709 43.965-20.709 68.268c0 32.59 12.946 63.845 35.989 86.889 23.044 23.045 54.301 35.991 86.893 35.991zM671.883 354.398c-5.382 1.13-10.928 1.188-16.331 0.176-5.403-1.016-10.551-3.084-15.155-6.091-4.6-3.002-8.565-6.885-11.67-11.424-3.101-4.538-5.28-9.642-6.406-15.020-1.13-5.378-1.192-10.928-0.176-16.331 1.016-5.399 3.084-10.547 6.091-15.151 3.002-4.604 6.885-8.569 11.424-11.67 4.534-3.101 9.638-5.28 15.020-6.41 92.979-18.432 131.482-51.61 131.482-64.717 0-23.757-100.352-81.92-286.72-81.92-186.37 0-286.722 58.163-286.722 81.92 0 13.107 38.502 46.285 131.482 66.355 5.379 1.13 10.483 3.31 15.020 6.41s8.419 7.066 11.424 11.67c3.005 4.604 5.074 9.753 6.088 15.151 1.015 5.403 0.956 10.953-0.174 16.331s-3.308 10.482-6.409 15.020c-3.102 4.538-7.068 8.421-11.67 11.424-4.602 3.006-9.751 5.075-15.153 6.091-5.402 1.012-10.951 0.954-16.33-0.176-124.518-28.672-196.198-82.33-196.198-148.275 0-107.725 185.549-163.84 368.642-163.84 183.091 0 368.64 56.115 368.64 163.84 0 65.946-71.68 119.603-196.198 146.637z" />
<glyph unicode="&#xe946;" glyph-name="search" d="M1007.747 36.773l-208.054 208.054c58.516 74.769 94.276 169.040 94.276 269.814 0 243.809-201.552 445.359-448.61 445.359-247.060 0-445.359-201.549-445.359-445.359s201.549-445.356 445.359-445.356c100.775 0 195.045 35.755 269.814 94.271l208.054-208.048c9.751-9.756 26.004-16.259 42.257-16.259s29.258 6.502 42.263 16.259c22.756 19.502 22.756 58.51 0 81.266zM445.359 183.063c-182.044 0-328.33 149.532-328.33 328.328 0 182.044 149.536 328.33 328.33 328.33 178.792 0 328.33-149.536 328.33-328.33 3.248-178.796-146.284-328.328-328.33-328.328z" />
</font>
</defs>
</svg>
